Remember Me
A password will be e-mailed to you.
Please enter your username or email address. You will receive a link to create a new password via email.
Cancel
PerfectHDMovies.me

Tenu Weds Manu Returns (2015) BDRip 720p HEVC (12 bits) AC3 (640kbps) SRT (English)

Tanu Weds Manu Returns    

N/A 128 min BollywoodBollywood Blu-Ray 720p

7.8
IMDB: 7.8/10 16,583 votes

, , ,

5 wins & 2 nominations.

India

Report error

Tenu Weds Manu Returns (2015) BDRip 720p HEVC (12 bits) AC3 (640kbps) SRT (English)

Tenu Weds Manu Returns (2015) BDRip 720p HEVC (12 bits) AC3 (640kbps) SRT (English)


 Source                                 : BD50 Hon3yHD
 Format                                 : Matroska
 File size                                : 1.76 GiB
 Duration                               : 2 h 7 min
 Overall bit rate                      : 1977 kb/sVideo
 Format                                  : HEVC
 Bit rate                                  : 1335 kb/s
 Width                                    : 1280 pixels
 Height                                   : 544 pixels
 Display aspect ratio               : 2.35:1
 Frame rate mode                   : Constant
 Frame rate                            : 24.000 FPS
 Color space                           : YUV
 Chroma subsampling             : 4:2:0
 Bit depth                               : 12 bits
 Bits/(Pixel*Frame)                : 0.080
 Stream size                           : 1.19 GiB (68%)Audio
 Format                                  : AC-3
 Bit rate mode                         : Constant
 Bit rate                                  : 640 kb/s
 Channel(s)                             : 6 channels
 Channel positions                   : Front: L C R, Side: L R, LFE
 Sampling rate                         : 48.0 kHz
 Frame rate                             : 31.250 FPS (1536 spf)
 Compression mode                 : Lossy
 Stream size                            : 583 MiB (32%)
 Language                                : HindiText
 Format                                   : UTF-8
 Duration                                 : 2 h 4 min
 Count of elements                   : 2137
 Stream size                             : 63.4 KiB (0%)
 Language                                : English

 

Tenu Weds Manu Returns (2015) BDRip 720p HEVC (12 bits) AC3 (640kbps) SRT (English)Tenu Weds Manu Returns (2015) BDRip 720p HEVC (12 bits) AC3 (640kbps) SRT (English)Tenu Weds Manu Returns (2015) BDRip 720p HEVC (12 bits) AC3 (640kbps) SRT (English)
LETWATACH
*
*
*
*
*
*
*
GO4UP 

No links available
No downloads available

Genres

Related movies

Watch Dragon ball super