Remember Me
A password will be e-mailed to you.
Please enter your username or email address. You will receive a link to create a new password via email.
Cancel
PerfectHDMovies.me

Teenage Mutant Ninja Turtles Out of the Shadows 2016 BluRay 1080p x264 Dual Audio [Hindi – English] Org DD5.1…Hon3y

Teenage Mutant Ninja Turtles: Out of the Shadows    

PG-13 112 min Dual AudioDual Audio Blu-Ray 1080p

6.1
IMDB: 6.1/10 27,402 votes

, , ,

2 nominations.

USA, Hong Kong, China, Canada

Report error

Teenage Mutant Ninja Turtles Out of the Shadows 2016 BluRay 1080p x264 Dual Audio [Hindi - English] Org DD5.1...Hon3y

Teenage Mutant Ninja Turtles Out of the Shadows 2016 BluRay 1080p x264 Dual Audio [Hindi – English] Org DD5.1…Hon3y

General
Format                      : Matroska
Format version              : Version 4 / Version 2
File size                   : 4.39 GiB
Duration                    : 1 h 52 min
Overall bit rate            : 5 608 kb/s

Video
Format                      : AVC
Format/Info                 : Advanced Video Codec
Format profile              : [email protected]
Format settings, CABAC      : Yes
Format settings, ReFrames   : 5 frames
Codec ID                    : V_MPEG4/ISO/AVC
Duration                    : 1 h 52 min
Bit rate                    : 4 685 kb/s
Width                       : 1 920 pixels
Height                      : 800 pixels
Display aspect ratio        : 2.40:1
Frame rate mode             : Constant
Frame rate                  : 23.976 (24000/1001) FPS
Color space                 : YUV
Chroma subsampling          : 4:2:0
Bit depth                   : 8 bits
Scan type                   : Progressive
Bits/(Pixel*Frame)          : 0.127
Stream size                 : 3.67 GiB (84%)
Title                       : [email protected]

Audio 1
Format                      : AC-3
Format/Info                 : Audio Coding 3
Mode extension              : CM (complete main)
Format settings, Endianness : Big
Codec ID                    : A_AC3
Duration                    : 1 h 52 min
Bit rate mode               : Constant
Bit rate                    : 448 kb/s
Channel(s)                  : 6 channels
Channel positions           : Front: L C R, Side: L R, LFE
Sampling rate               : 48.0 kHz
Frame rate                  : 31.250 FPS (1536 spf)
Compression mode            : Lossy
Stream size                 : 359 MiB (8%)
Title                       : [email protected]
Language                    : Hindi
Default                     : Yes
Forced                      : Yes

Audio 2
Format                      : AC-3
Format/Info                 : Audio Coding 3
Mode extension              : CM (complete main)
Format settings, Endianness : Big
Codec ID                    : A_AC3
Duration                    : 1 h 52 min
Bit rate mode               : Constant
Bit rate                    : 448 kb/s
Channel(s)                  : 6 channels
Channel positions           : Front: L C R, Side: L R, LFE
Sampling rate               : 48.0 kHz
Frame rate                  : 31.250 FPS (1536 spf)
Compression mode            : Lossy
Stream size                 : 359 MiB (8%)
Title                       : [email protected]
Language                    : English
Default                     : No

Subtitle Text 1
Format                      : PGS
Muxing mode                 : zlib
Codec ID                    : S_HDMV/PGS
Codec ID/Info               : Picture based subtitle format used on BDs/HD-DVDs
Duration                    : 1 h 43 min
Bit rate                    : 15.3 kb/s
Count of elements           : 3758
Stream size                 : 11.3 MiB (0%)
Title                       : [email protected]
Language                    : English
Default                     : Yes

  Teenage Mutant Ninja Turtles Out of the Shadows 2016 BluRay 1080p x264 Dual Audio [Hindi - English] Org DD5.1...Hon3yTeenage Mutant Ninja Turtles Out of the Shadows 2016 BluRay 1080p x264 Dual Audio [Hindi - English] Org DD5.1...Hon3yTeenage Mutant Ninja Turtles Out of the Shadows 2016 BluRay 1080p x264 Dual Audio [Hindi - English] Org DD5.1...Hon3y
LETWATACH
*
*
VODLOCKER
*
*
*
MULTIUP
*
*
GO4UP 
 
No links available
No downloads available

Genres

Related movies

Watch Dragon ball super