Remember Me
A password will be e-mailed to you.
Please enter your username or email address. You will receive a link to create a new password via email.
Cancel
PerfectHDMovies.me

Talaash – The Hunt Begins (2003) WEB-HD Untouched 1080p Hon3yHD~2.39 GB

Talaash: The Hunt Begins...    

N/A N/A BollywoodBollywood WEB-DL 1080p

4.7
IMDB: 4.7/10 693 votes

N/A

India

Report error

Talaash - The Hunt Begins (2003) WEB-HD Untouched 1080p Hon3yHD

Talaash – The Hunt Begins (2003) WEB-HD Untouched 1080p Hon3yHD~2.39 GB

Info

Format : MPEG-4
Format profile : Base Media
Codec ID : isom (isom/iso2/avc1/mp41)
File size : 2.39 GiB
Duration : 2h 33mn
Overall bit rate mode : Variable
Overall bit rate : 2 238 Kbps
Encoded date : UTC 2016-03-18 06:21:55
Tagged date : UTC 2016-03-18 06:21:55

Video
ID : 1
Format : AVC
Format/Info : Advanced Video Codec
Format profile : [email protected]
Format settings, CABAC : Yes
Format settings, ReFrames : 3 frames
Codec ID : avc1
Codec ID/Info : Advanced Video Coding
Duration : 2h 33mn
Bit rate : 2 109 Kbps
Width : 1 920 pixels
Height : 1 080 pixels
Display aspect ratio : 16:9
Frame rate mode : Constant
Frame rate : 25.000 fps
Color space : YUV
Chroma subsampling : 4:2:0
Bit depth : 8 bits
Scan type : Progressive
Bits/(Pixel*Frame) : 0.041
Stream size : 2.25 GiB (94%)
Encoded date : UTC 2016-03-18 06:21:55
Tagged date : UTC 2016-03-18 06:21:55

Audio
ID : 2
Format : AAC
Format/Info : Advanced Audio Codec
Format profile : LC
Codec ID : 40
Duration : 2h 33mn
Bit rate mode : Variable
Bit rate : 126 Kbps
Channel(s) : 2 channels
Channel positions : Front: L R
Sampling rate : 44.1 KHz
Frame rate : 43.066 fps (1024 spf)
Compression mode : Lossy
Stream size : 137 MiB (6%)
Default : Yes
Alternate group : 1

 
http://extraimago.com/images/2016/05/04/T19.png
 
http://extraimago.com/images/2016/05/04/T5.png
 
http://extraimago.com/images/2016/05/04/T20.png 
*
*
*
*
*
*

 

No links available
No downloads available

Genres

Related movies

Watch Dragon ball super