Remember Me
A password will be e-mailed to you.
Please enter your username or email address. You will receive a link to create a new password via email.
Cancel
PerfectHDMovies.me

Takkar (1995) 720p WebHD AVC – AAC 2CH CA (DUS) 1.58 GB

Takkar    

N/A N/A BollywoodBollywood WEB-DL 720p

4.9
IMDB: 4.9/10 111 votes

, , ,

N/A

India

Report error

 
General
Complete name                            : C:\Users\CA\Desktop\Takkar (1995) 720p WebHD AVC - AAC 2CH CA (DUS).mp4
Format                                   : MPEG-4
Format profile                           : Base Media / Version 2
Codec ID                                 : mp42
File size                                : 1.58 GiB
Duration                                 : 2h 23mn
Overall bit rate mode                    : Variable
Overall bit rate                         : 1 574 Kbps
Encoded date                             : UTC 2015-07-23 05:28:50
Tagged date                              : UTC 2015-07-23 05:28:50
gsst                                     : 0
gstd                                     : 8621150

Video
ID                                       : 1
Format                                   : AVC
Format/Info                              : Advanced Video Codec
Format profile                           : [email protected]
Format settings, CABAC                   : Yes
Format settings, ReFrames                : 1 frame
Codec ID                                 : avc1
Codec ID/Info                            : Advanced Video Coding
Duration                                 : 2h 23mn
Bit rate                                 : 1 380 Kbps
Maximum bit rate                         : 6 567 Kbps
Width                                    : 1 280 pixels
Height                                   : 720 pixels
Display aspect ratio                     : 16:9
Frame rate mode                          : Constant
Frame rate                               : 25.000 fps
Color space                              : YUV
Chroma subsampling                       : 4:2:0
Bit depth                                : 8 bits
Scan type                                : Progressive
Bits/(Pixel*Frame)                       : 0.060
Stream size                              : 1.38 GiB (88%)
Tagged date                              : UTC 2015-07-23 05:30:52

Audio
ID                                       : 2
Format                                   : AAC
Format/Info                              : Advanced Audio Codec
Format profile                           : LC
Codec ID                                 : 40
Duration                                 : 2h 23mn
Bit rate mode                            : Variable
Bit rate                                 : 192 Kbps
Maximum bit rate                         : 203 Kbps
Channel(s)                               : 2 channels
Channel positions                        : Front: L R
Sampling rate                            : 44.1 KHz
Compression mode                         : Lossy
Stream size                              : 197 MiB (12%)
Title                                    : IsoMedia File Produced by Google, 5-11-2011
Language                                 : English
Encoded date                             : UTC 2015-07-23 05:30:04
Tagged date                              : UTC 2015-07-23 05:30:52

*
*
*
*
*
*
No links available
No downloads available

Genres

Related movies

Watch Dragon ball super