Tag Archives: VAiN

Central Intelligence 2016 HC HDRip XviD AC3-VAiN – 1.38 GB

http://extraimago.com/images/2016/07/15/gVIKTASI.jpg

 

Central Intelligence 2016 HC HDRip XviD AC3-VAiN

iMDB........: http://www.imdb.com/title/tt1489889/
 
 
 
 T E C H N i C A L . i N F O . . .
 
 Basic Information
 Format                      : AVI
 Format/Info                 : Audio Video Interleave
 File size                   : 1.38 GiB
 Duration                    : 1h 51mn
 Overall bit rate            : 1 765 Kbps
 Writing application         : VirtualDubMod 1.5.10.2 (build 2542/release)
 Writing library             : VirtualDub build 32593/release
 
 Video
 ID                          : 0
 Format                      : MPEG-4 Visual
 Format profile              : Advanced [email protected]
 Format settings, BVOP       : 2
 Format settings, QPel       : No
 Format settings, GMC        : No warppoints
 Format settings, Matrix     : Default (H.263)
 Muxing mode                 : Packed bitstream
 Codec ID                    : XVID
 Codec ID/Hint               : XviD
 Duration                    : 1h 51mn
 Bit rate                    : 1 564 Kbps
 Width                       : 720 pixels
 Height                      : 304 pixels
 Display aspect ratio        : 2.35:1
 Frame rate                  : 23.976 (23976/1000) fps
 Color space                 : YUV
 Chroma subsampling          : 4:2:0
 Bit depth                   : 8 bits
 Scan type                   : Progressive
 Compression mode            : Lossy
 Bits/(Pixel*Frame)          : 0.298
 Stream size                 : 1.22 GiB (89%)
 Writing library             : XviD 66
 
 Audio
 ID                          : 1
 Format                      : AC-3
 Format/Info                 : Audio Coding 3
 Mode extension              : CM (complete main)
 Format settings, Endianness : Big
 Codec ID                    : 2000
 Duration                    : 1h 51mn
 Bit rate mode               : Constant
 Bit rate                    : 192 Kbps
 Channel(s)                  : 2 channels
 Channel positions           : Front: L R
 Sampling rate               : 48.0 KHz
 Frame rate                  : 31.250 fps (1536 spf)
 Compression mode            : Lossy
 Stream size                 : 153 MiB (11%)
 Alignment                   : Split accross interleaves
 Interleave, duration        : 42 ms (1.00 video frame)
 Interleave, preload duratio : 500 ms






Click To Resize
Click To Resize
Click To Resize
Click To Resize
Click To Resize
Click To Resize


Sample



*
VODLOCKER
*



	

Deadpool 2016 HDRip AC3 XviD VAiN – 1.5 GB

 

Deadpool 2016 HDRip AC3 XviD VAiN

iMDB........ :http://www.imdb.com/title/tt1431045/

PLOT........ A former Special Forces operative turned mercenary is subjected to a rogue 
experiment that leaves him with accelerated healing powers, adopting the alter ego
 Deadpool


T E C H N i C A L . i N F O . . .


General
Complete name                            : Deadpool.2016.HDRip.AC3.XviD.VAiN.avi
Format                                   : AVI
Format/Info                              : Audio Video Interleave
Format profile                           : OpenDML
Format settings                          : rec
File size                                : 1.45 GiB
Duration                                 : 1h 48mn
Overall bit rate                         : 1 911 Kbps
Writing application                      : AVI-Mux GUI 1.17.8.3, Feb 16 201019:42:50

Video
ID                                       : 0
Format                                   : MPEG-4 Visual
Format profile                           : Advanced [email protected]
Format settings, BVOP                    : 1
Format settings, QPel                    : No
Format settings, GMC                     : No warppoints
Format settings, Matrix                  : Default (MPEG)
Codec ID                                 : XVID
Codec ID/Hint                            : XviD
Duration                                 : 1h 48mn
Bit rate                                 : 1 460 Kbps
Width                                    : 720 pixels
Height                                   : 304 pixels
Display aspect ratio                     : 2.35:1
Frame rate                               : 23.976 (24000/1001) fps
Color space                              : YUV
Chroma subsampling                       : 4:2:0
Bit depth                                : 8 bits
Scan type                                : Progressive
Compression mode                         : Lossy
Bits/(Pixel*Frame)                       : 0.278
Stream size                              : 1.11 GiB (76%)
Writing library                          : XviD 1.2.1 (UTC 2008-12-04)

Audio
ID                                       : 1
Format                                   : AC-3
Format/Info                              : Audio Coding 3
Mode extension                           : CM (complete main)
Format settings, Endianness              : Big
Codec ID                                 : 2000
Duration                                 : 1h 48mn
Bit rate mode                            : Constant
Bit rate                                 : 448 Kbps
Channel(s)                               : 2 channels
Channel positions                        : Front: L R
Sampling rate                            : 44.1 KHz
Frame rate                               : 28.711 fps (1536 spf)
Compression mode                         : Lossy
Stream size                              : 346 MiB (23%)
Alignment                                : Aligned on interleaves
Interleave, duration                     : 70 ms (1.68 video frames)
Interleave, preload duration             : 348 ms


E N C O D E R S . N O T E S . . .  

   
SOURCE......: ViDEO...Deadpool.2016.1080p.WEB-DL.AAC2.0.H264-RBG thx

............: AUDiO...Deadpool.2016.1080p.WEB-DL.AAC2.0.H264-RBG thx

SAMPLE......: nope

ADDED NOTE..: cropped , resized , sharpened & a slight bit of vain magic lol


http://extraimago.com/images/2016/04/26/6duvZzhH.jpg