Tag Archives: Comedy

Deadpool (2016) 720p BluRay x264 [Dual-Audio][English DD 5.1 + Hindi DD 5.1] – Mafiaking – M2Tv 1Gb

Deadpool (2016) 720p BluRay x264 [Dual-Audio][English DD 5.1 + Hindi DD 5.1] - Mafiaking - M2Tv

Deadpool (2016) 720p BluRay x264 [Dual-Audio][English DD 5.1 + Hindi DD 5.1] – Mafiaking – M2Tv 1Gb

Ratings: 8.2/10

Genere: Action, Adventure, Comedy

General
Unique ID : 175256098483249176548626176831379186250 (0x83D918C7EB83CC5A95B650C5E1FFA24A)
Complete name : Deadpool (2016) 720p BluRay x264 [Dual-Audio][English DD 5.1 + Hindi DD 5.1] - Mafiaking - M2Tv.mkv
Format : Matroska
Format version : Version 4 / Version 2
File size : 1.04 GiB
Duration : 1h 48mn
Overall bit rate : 1 375 Kbps
Movie name : Deadpool (2016) 720p BluRay x264 [Dual-Audio][English DD 5.1 + Hindi DD 5.1] - Mafiaking - M2Tv
Encoded date : UTC 2016-05-18 19:36:28
Writing application : mkvmerge v7.9.0 ('Birds') 64bit
Writing library : libebml v1.3.1 + libmatroska v1.4.2

Video
ID : 1
Format : AVC
Format/Info : Advanced Video Codec
Format profile : [email protected]
Format settings, CABAC : Yes
Format settings, ReFrames : 5 frames
Codec ID : V_MPEG4/ISO/AVC
Duration : 1h 48mn
Bit rate : 925 Kbps
Width : 1 280 pixels
Height : 536 pixels
Display aspect ratio : 2.40:1
Frame rate mode : Constant
Frame rate : 23.976 (24000/1001) fps
Color space : YUV
Chroma subsampling : 4:2:0
Bit depth : 8 bits
Scan type : Progressive
Bits/(Pixel*Frame) : 0.056
Stream size : 715 MiB (67%)
Title : Mafiaking
Language : English
Default : Yes
Forced : No
Color range : Limited
Color primaries : BT.709
Transfer characteristics : BT.709
Matrix coefficients : BT.709

Audio #1
ID : 2
Format : AC-3
Format/Info : Audio Coding 3
Mode extension : CM (complete main)
Format settings, Endianness : Big
Codec ID : A_AC3
Duration : 1h 48mn
Bit rate mode : Constant
Bit rate : 224 Kbps
Channel(s) : 6 channels
Channel positions : Front: L C R, Side: L R, LFE
Sampling rate : 48.0 KHz
Compression mode : Lossy
Stream size : 173 MiB (16%)
Title : Mafiaking
Language : Hindi
Default : Yes
Forced : No

Audio #2
ID : 3
Format : AC-3
Format/Info : Audio Coding 3
Mode extension : CM (complete main)
Format settings, Endianness : Big
Codec ID : A_AC3
Duration : 1h 48mn
Bit rate mode : Constant
Bit rate : 224 Kbps
Channel(s) : 6 channels
Channel positions : Front: L C R, Side: L R, LFE
Sampling rate : 48.0 KHz
Compression mode : Lossy
Stream size : 173 MiB (16%)
Title : Mafiaking
Language : English
Default : No
Forced : No

Deadpool (2016) 1080p BluRay x264 [Dual-Audio] [English DD 5.1 + Hindi DD 5.1] – NicK 2.48 GB

Deadpool (2016) 1080p BluRay x264 [Dual-Audio] [English DD 5.1 + Hindi DD 5.1] - NicK

Deadpool (2016) 1080p BluRay x264 [Dual-Audio] [English DD 5.1 + Hindi DD 5.1] – NicK

General
Format : Matroska
File size : 2.47 GiB
Duration : 1h 48mn
Overall bit rate : 3 265 Kbps
Movie name : Deadpool (2016) 1080p BluRay x264 [Dual-Audio] [English DD 5.1 + Hindi DD 5.1] - NicK
Source : JYK/HDDR

Video
ID : 1
Format : AVC
Duration : 1h 48mn
Nominal bit rate : 2850 Kbps
Width : 1 920 pixels
Height : 804 pixels
Display aspect ratio : 2.40:1
Frame rate : 23.976 fps

Audio #1
ID : 2
Format : AAC
Bitrate : 192 Kbps
Format profile : HE-AAC / LC
Channel(s) : 6 channels
Channel positions : Front: L C R, Side: L R, LFE
Title : Hindi DD 5.1 - NicK
Default : Yes

Audio #2
ID : 3
Format : AAC
Format profile : HE-AACv2 / HE-AAC / LC
Bitrate : 192 Kbps
Channel(s) : 2 channels / 6 channels / 6 channels
Channel positions : Front: L R / Front: L C R, Side: L R, LFE / Front: L C R, Side: L R, LFE
Title : English DD 5.1 - NicK
Default : No

Deadpool (2016) 1080p[Dual Audio][ENG(5.1)-HINDI(5.1)]~{PHDR}~ 3.9Gb

Deadpool (2016) 1080p[Dual Audio][ENG(5.1)-HINDI(5.1)]~{PHDR}
Deadpool (2016) 1080p[Dual Audio][ENG(5.1)-HINDI(5.1)]~{PHDR}~

General

Complete name : Deadpool (2016) 1080p[Dual Audio][ENG(5.1)-HINDI(5.1)]~{PHDR}~.mkv
 Format : Matroska
 Format version : Version 4 / Version 2
 File size : 3.93 GiB
 Duration : 1h 48mn
 Overall bit rate : 5 205 Kbps

Video
 ID : 1
 Format : AVC
 Format/Info : Advanced Video Codec
 Format profile : [email protected]
 Format settings, CABAC : Yes
 Format settings, ReFrames : 5 frames
 Codec ID : V_MPEG4/ISO/AVC
 Duration : 1h 48mn
 Bit rate : 4 091 Kbps
 Width : 1 920 pixels
 Height : 804 pixels
 Display aspect ratio : 2.40:1
 Frame rate mode : Constant
 Frame rate : 23.976 (24000/1001) fps
 Color space : YUV
 Chroma subsampling : 4:2:0
 Bit depth : 8 bits
 Scan type : Progressive
 Bits/(Pixel*Frame) : 0.111
 Stream size : 3.09 GiB (79%)
 Default : Yes
 Forced : No

Audio #1
 ID : 2
 Format : AC-3
 Format/Info : Audio Coding 3
 Mode extension : CM (complete main)
 Format settings, Endianness : Big
 Codec ID : A_AC3
 Duration : 1h 48mn
 Bit rate mode : Constant
 Bit rate : 448 Kbps
 Channel(s) : 6 channels
 Channel positions : Front: L C R, Side: L R, LFE
 Sampling rate : 48.0 KHz
 Frame rate : 31.250 fps (1536 spf)
 Compression mode : Lossy
 Stream size : 346 MiB (9%)
 Title : Bluray PHDR
 Language : Hindi
 Default : Yes
 Forced : No

Audio #2
 ID : 3
 Format : AC-3
 Format/Info : Audio Coding 3
 Mode extension : CM (complete main)
 Format settings, Endianness : Big
 Codec ID : A_AC3
 Duration : 1h 48mn
 Bit rate mode : Constant
 Bit rate : 640 Kbps
 Channel(s) : 6 channels
 Channel positions : Front: L C R, Side: L R, LFE
 Sampling rate : 48.0 KHz
 Frame rate : 31.250 fps (1536 spf)
 Compression mode : Lossy
 Stream size : 495 MiB (12%)
 Title : Bluray
 Language : English
 Default : No
 Forced : No

Text #1
 ID : 4
 Format : PGS
 Muxing mode : zlib
 Codec ID : S_HDMV/PGS
 Codec ID/Info : Picture based subtitle format used on BDs/HD-DVDs
 Duration : 1h 47mn
 Bit rate : 10.3 Kbps
 Count of elements : 2848
 Stream size : 7.93 MiB (0%)
 Title : Bluray PHDR
 Language : Hindi
 Default : Yes
 Forced : No

Text #2
 ID : 5
 Format : PGS
 Muxing mode : zlib
 Codec ID : S_HDMV/PGS
 Codec ID/Info : Picture based subtitle format used on BDs/HD-DVDs
 Duration : 1h 47mn
 Bit rate : 13.9 Kbps
 Count of elements : 3704
 Stream size : 10.7 MiB (0%)
 Title : Bluray SDH
 Language : English
 Default : No
 Forced : No