Tag Archives: 300 MB

Zathura A Space Adventure 2005 Dual Audio Hindi 480p BluRay PHDM 300mb

Zathura A Space Adventure 2005 Dual Audio Hindi Bluray Download

Zathura A Space Adventure 2005 Dual Audio Hindi 480p BluRay PHDM

Format : Matroska
Format version : Version 4 / Version 2
File size : 316 MiB
Duration : 1 h 41 min
Overall bit rate : 436 kb/s
Movie name : Zathura A Space Adventure 2005 Dual Audio Hindi + English 480p BluRay PHDM
Encoded date : UTC 2016-08-31 12:24:42
Writing application : mkvmerge v9.4.0 ('Knurl') 32bit
Writing library : libebml v1.3.4 + libmatroska v1.4.5

Video
ID : 1
Format : AVC
Format/Info : Advanced Video Codec
Format profile : [email protected]
Format settings, CABAC : Yes
Format settings, ReFrames : 4 frames
Codec ID : V_MPEG4/ISO/AVC
Duration : 1 h 41 min
Bit rate : 370 kb/s
Width : 720 pixels
Height : 388 pixels
Display aspect ratio : 1.85:1
Frame rate mode : Constant
Frame rate : 23.976 (24000/1001) FPS
Color space : YUV
Chroma subsampling : 4:2:0
Bit depth : 8 bits
Scan type : Progressive
Bits/(Pixel*Frame) : 0.055
Stream size : 268 MiB (85%)
Writing library : x264 core 142 r2479 dd79a61
Default : Yes
Forced : No
Color range : Limited
Color primaries : BT.709
Transfer characteristics : BT.709
Matrix coefficients : BT.709

Audio #1
ID : 2
Format : AAC
Format/Info : Advanced Audio Codec
Format profile : HE-AAC / LC
Codec ID : A_AAC
Duration : 1 h 41 min
Bit rate : 32.0 kb/s
Channel(s) : 2 channels
Channel positions : Front: L R
Sampling rate : 22.05 kHz / 11.025 kHz
Frame rate : 10.767 FPS (1024 spf)
Compression mode : Lossy
Delay relative to video : -229 ms
Stream size : 23.2 MiB (7%)
Title : PerfecthdMovies
Language : Hindi
Default : Yes
Forced : No

Audio #2
ID : 3
Format : AAC
Format/Info : Advanced Audio Codec
Format profile : HE-AAC / LC
Codec ID : A_AAC
Duration : 1 h 41 min
Bit rate : 32.0 kb/s
Channel(s) : 2 channels
Channel positions : Front: L R
Sampling rate : 22.05 kHz / 11.025 kHz
Frame rate : 10.767 FPS (1024 spf)
Compression mode : Lossy
Delay relative to video : -229 ms
Stream size : 23.2 MiB (7%)
Title : PerfecthdMovies
Language : English
Default : No
Forced : No

Text
ID : 4
Format : UTF-8
Codec ID : S_TEXT/UTF8
Codec ID/Info : UTF-8 Plain Text
Duration : 1 h 36 min
Bit rate : 41 b/s
Count of elements : 957
Stream size : 29.2 KiB (0%)
Default : Yes
Forced : No