Remember Me
A password will be e-mailed to you.
Please enter your username or email address. You will receive a link to create a new password via email.
Cancel
PerfectHDMovies.me

SULTAN (2016) Tiny 1080p Blu-ray x264 AAC 5.1 MSubs -DDR – 2.4 GB

Sultan    

NOT RATED 170 min BollywoodBollywood Blu-Ray 1080p

7.4
IMDB: 7.4/10 13,737 votes

, , ,

N/A

India

Report error

 

SULTAN (2016) Tiny 1080p Blu-ray x264 AAC 5.1 MSubs -DDR


[ Info ]
Source : BD50 @ DDR
Format : Matroska
File size : 2.40 GiB
Duration : 2 h 49 min
Overall bit rate : 2 031 kb/s
Video
Format : AVC
Format/Info : Advanced Video Codec
Format profile : [email protected]
Format settings, CABAC : Yes
Format settings, ReFrames : 5 frames
Codec ID : V_MPEG4/ISO/AVC
Duration : 2 h 49 min
Bit rate : 1 796 kb/s
Width : 1 920 pixels
Height : 816 pixels
Display aspect ratio : 2.35:1
Frame rate mode : Constant
Frame rate : 24.000 FPS
Color space : YUV
Chroma subsampling : 4:2:0
Bit depth : 8 bits
Scan type : Progressive
Bits/(Pixel*Frame) : 0.048
Stream size : 2.13 GiB (88%)
Color primaries : BT.709
Transfer characteristics : BT.709
Matrix coefficients : BT.709

Audio
Format : AAC
Format/Info : Advanced Audio Codec
Format profile : LC
Codec ID : A_AAC
Duration : 2 h 49 min
Bit rate : 192 kb/s
Channel(s) : 6 channels
Channel positions : Front: L C R, Side: L R, LFE
Sampling rate : 48.0 kHz
Frame rate : 46.875 FPS (1024 spf)
Compression mode : Lossy
Delay relative to video : 9 ms
Stream size : 232 MiB (9%)
Language : Hindi
Default : Yes
Forced : No

Chapters = YES


 

 

 

 

 

 

 

 


Sample


*
*
 
No links available
No downloads available

Genres

Related movies

Watch Dragon ball super