Sultan 2016 720p DVDSCR Rip V2 (NO LOGO) x264 AC3 5.1 Mafiaking M2Tv 1.4GB

Sultan 2016 720p DVDSCR Rip V2 (NO LOGO) x264 AC3 5.1 Mafiaking M2Tv 1.4GB

Sultan 2016 720p DVDSCR Rip V2 (NO LOGO) x264 AC3 5.1 Mafiaking M2Tv 1.4GB

Sultan 2016 720p DVDSCR Rip V2 (NO LOGO) x264 AC3 5.1 Mafiaking M2Tv 1.4GB

Genere: Action, Drama, Romance 

General
Unique ID : 225670011620345951167163082919740663112 (0xA9C6769A5E76A3298D412659FBAF6548)
Complete name : Sultan (2016) - 720p - DVDSCR-Rip - Version2 - (NO LOGO) - Hindi - x264 - AC3 - 5.1 - Mafiaking - M2Tv.mkv
Format : Matroska
Format version : Version 4 / Version 2
File size : 1.39 GiB
Duration : 2h 49mn
Overall bit rate : 1 175 Kbps
Movie name : Sultan (2016) - 720p - DVDSCR-Rip - Version2 - (NO LOGO) - Hindi - x264 - AC3 - 5.1 - Mafiaking - M2Tv
Encoded date : UTC 2016-07-15 05:46:58
Writing application : mkvmerge v8.3.0 ('Over the Horizon') 64bit
Writing library : libebml v1.3.1 + libmatroska v1.4.2

Video
ID : 1
Format : AVC
Format/Info : Advanced Video Codec
Format profile : [email protected]
Format settings, CABAC : Yes
Format settings, ReFrames : 3 frames
Codec ID : V_MPEG4/ISO/AVC
Duration : 2h 49mn
Bit rate : 950 Kbps
Width : 1 280 pixels
Height : 544 pixels
Display aspect ratio : 2.35:1
Frame rate mode : Constant
Frame rate : 23.976 fps
Color space : YUV
Chroma subsampling : 4:2:0
Bit depth : 8 bits
Scan type : Progressive
Bits/(Pixel*Frame) : 0.057
Stream size : 1.10 GiB (79%)
Title : Mafiaking
Language : Hindi
Default : Yes
Forced : No

Audio
ID : 2
Format : AC-3
Format/Info : Audio Coding 3
Mode extension : CM (complete main)
Format settings, Endianness : Big
Codec ID : A_AC3
Duration : 2h 49mn
Bit rate mode : Constant
Bit rate : 224 Kbps
Channel(s) : 6 channels
Channel positions : Front: L C R, Side: L R, LFE
Sampling rate : 48.0 KHz
Compression mode : Lossy
Stream size : 271 MiB (19%)
Title : Mafiaking
Language : Hindi
Default : Yes
Forced : No

    
 

 *

Advertising

*
*
*
*
*
 

 

Jul 15, 2016 - Posted by Jasleev -

Comments are closed.