Remember Me
A password will be e-mailed to you.
Please enter your username or email address. You will receive a link to create a new password via email.
Cancel
PerfectHDMovies.me

Sultan (2016) 720p BluRay Hindi x264 AC3 5.1 Mafiaking M2Tv 1.36GB

Sultan    

NOT RATED 170 min BollywoodBollywood Blu-Ray 720p

7.4
IMDB: 7.4/10 13,737 votes

, , ,

N/A

India

Report error

Sultan (2016) 720p BluRay Hindi x264 AC3 5.1 Mafiaking M2Tv 1.36GB

Sultan (2016) 720p BluRay Hindi x264 AC3 5.1 Mafiaking M2Tv 1.36GB

General
Unique ID : 228823326165131302755639153168036938177 (0xAC25C5036DCE8E5C8496623D399441C1)
Complete name : Sultan (2016) - 720p - BluRay - Hindi - x264 - AC3 - 5.1 - Mafiaking - M2Tv - ExClusive.mkv
Format : Matroska
Format version : Version 4 / Version 2
File size : 1.36 GiB
Duration : 2 h 49 min
Overall bit rate : 1 150 kb/s
Movie name : Sultan (2016) - 720p - BluRay - Hindi - x264 - AC3 - 5.1 - Mafiaking - M2Tv - ExClusive
Encoded date : UTC 2016-08-25 05:44:48
Writing application : mkvmerge v7.0.0 ('Where We Going') 32bit built on Jun 9 2014 15:08:34
Writing library : libebml v1.3.0 + libmatroska v1.4.1

Video
ID : 1
Format : AVC
Format/Info : Advanced Video Codec
Format profile : [email protected]
Format settings, CABAC : Yes
Format settings, ReFrames : 3 frames
Codec ID : V_MPEG4/ISO/AVC
Duration : 2 h 49 min
Bit rate : 925 kb/s
Width : 1 280 pixels
Height : 544 pixels
Display aspect ratio : 2.35:1
Frame rate mode : Constant
Frame rate : 24.000 FPS
Color space : YUV
Chroma subsampling : 4:2:0
Bit depth : 8 bits
Scan type : Progressive
Bits/(Pixel*Frame) : 0.055
Stream size : 1.09 GiB (80%)
Title : Mafiaking
Language : Hindi
Default : Yes
Forced : No

Audio
ID : 2
Format : AC-3
Format/Info : Audio Coding 3
Mode extension : CM (complete main)
Format settings, Endianness : Big
Codec ID : A_AC3
Duration : 2 h 49 min
Bit rate mode : Constant
Bit rate : 224 kb/s
Channel(s) : 2 channels
Channel positions : Front: L R
Sampling rate : 48.0 kHz
Frame rate : 31.250 FPS (1536 spf)
Compression mode : Lossy
Stream size : 271 MiB (19%)
Title : Mafiaking
Language : Hindi
Default : Yes
Forced : No

 Sultan (2016) 720p BluRay Hindi x264 AC3 5.1 Mafiaking M2Tv 1.36GBSultan (2016) 720p BluRay Hindi x264 AC3 5.1 Mafiaking M2Tv 1.36GBSultan (2016) 720p BluRay Hindi x264 AC3 5.1 Mafiaking M2Tv 1.36GB


USERSCLOUD
*
*
*
MULTIUP
*
JHEBERG
*
GO4UP 
 

 

No links available
No downloads available

Genres

Related movies

Watch Dragon ball super