Remember Me
A password will be e-mailed to you.
Please enter your username or email address. You will receive a link to create a new password via email.
Cancel
PerfectHDMovies.me

Suicide Squad 2016 HDTS x264-BiGDADDYVAiN – 1.6 GB

Suicide Squad    

PG-13 123 min HollywoodHollywood Pre-Releases (Latest)

7.2
IMDB: 7.2/10 49,271 votes

, , ,

1 win & 4 nominations.

USA

Report error

Suicide Squad 2016 HDTS x264-BiGDADDYVAiN


iMDB........: http://www.imdb.com/title/tt1386697/



T E C H N i C A L . i N F O . . .

Basic Information
Format                      : Matroska
Format version              : Version 4 / Version 2
File size                   : 1.64 GiB
Duration                    : 1 h 53 min
Overall bit rate mode       : Variable
Overall bit rate            : 2 069 kb/s
Encoded date                : UTC 2016-08-14 19:10:20
Writing application         : mkvmerge v8.3.0 ('Over the Horizon') 64bit
Writing library             : libebml v1.3.1 + libmatroska v1.4.2

Video
ID                          : 1
Format                      : AVC
Format/Info                 : Advanced Video Codec
Format profile              : [email protected]
Format settings, CABAC      : Yes
Format settings, ReFrames   : 3 frames
Codec ID                    : V_MPEG4/ISO/AVC
Duration                    : 1 h 53 min
Bit rate mode               : Variable
Bit rate                    : 1 875 kb/s
Maximum bit rate            : 40.0 Mb/s
Width                       : 704 pixels
Height                      : 288 pixels
Display aspect ratio        : 2.40:1
Frame rate mode             : Constant
Frame rate                  : 25.000 FPS
Color space                 : YUV
Chroma subsampling          : 4:2:0
Bit depth                   : 8 bits
Scan type                   : Progressive
Bits/(Pixel*Frame)          : 0.370
Stream size                 : 1.49 GiB (91%)
Writing library             : x264 core 148 r2692 64f4e24
Default                     : Yes
Forced                      : No
Color range                 : Full
Color primaries             : BT.709
Transfer characteristics    : BT.709
Matrix coefficients         : BT.709

Audio
ID                          : 2
Format                      : MPEG Audio
Format version              : Version 1
Format profile              : Layer 3
Mode                        : Joint stereo
Mode extension              : MS Stereo
Codec ID                    : A_MPEG/L3
Codec ID/Hint               : MP3
Duration                    : 1 h 53 min
Bit rate mode               : Constant
Bit rate                    : 192 kb/s
Channel(s)                  : 2 channels
Sampling rate               : 44.1 kHz
Frame rate                  : 38.281 FPS (1152 spf)
Compression mode            : Lossy
Stream size                 : 156 MiB (9%)



SOURCE......: ViDEO...CPG
............: AUDiO...CPG
SAMPLE......: Yippers 
ADDED NOTE..: well took the cpg release as needed sum poo shining... no offense just a different set of eyes. resized, cropped and chopped added the ol' shiner filters 😉 then took the line audio which lacked life and sprayed it too down with the poo filter... now what we have is a diamond made from the turd... :shit:

 

 

 

 


Sample 1

Sample 2


 

 

No links available
No downloads available

Genres

Related movies

Watch Dragon ball super