Remember Me
A password will be e-mailed to you.
Please enter your username or email address. You will receive a link to create a new password via email.
Cancel
PerfectHDMovies.me

Star.Wars.The.Force.Awakens.2015.UNMARKED.TS.XviD-VAiN 1.29 GB

Star Wars: The Force Awakens    

PG-13 135 min HollywoodHollywood Pre-Releases (Latest)

8.4
IMDB: 8.4/10 390,401 votes

, , ,

Nominated for 5 Oscars. Another 2 wins & 25 nominations.

USA

Report error

Star-Wars-Episode-VII-The-Force-Awakens-2015-movie-poster.jpg

http://www.imdb.com/title/tt2488496/

Three decades after the defeat of the Galactic Empire, a new threat arises. The First Order attempts to rule the galaxy and only a rag-tag group of heroes can stop them, along with the help of the Resistance.

Director: J.J. Abrams
Writers: Lawrence Kasdan, J.J. Abrams
Stars: Daisy Ridley, John Boyega, Oscar Isaac
Genres: Action | Adventure | Fantasy | Sci-Fi
Country: USA
Language: English

T E C H N i C A L . i N F O . . .

Basic Information
Format : AVI
Format/Info : Audio Video Interleave
File size : 1.28 GiB
Duration : 2h 7mn
Overall bit rate : 1 438 Kbps
Writing application : VirtualDubMod 1.5.10.2 (build 2540/release)
Writing library : VirtualDub build 35491/release

Video
ID : 0
Format : MPEG-4 Visual
Format profile : Advanced [email protected]
Format settings, BVOP : 2
Format settings, QPel : No
Format settings, GMC : No warppoints
Format settings, Matrix : Default (H.263)
Muxing mode : Packed bitstream
Codec ID : XVID
Codec ID/Hint : XviD
Duration : 2h 7mn
Bit rate : 1 235 Kbps
Width : 720 pixels
Height : 320 pixels
Display aspect ratio : 2.25:1
Frame rate : 29.970 (30000/1001) fps
Color space : YUV
Chroma subsampling : 4:2:0
Bit depth : 8 bits
Scan type : Progressive
Compression mode : Lossy
Bits/(Pixel*Frame) : 0.179
Stream size : 1.10 GiB (86%)
Writing library : XviD 67

Audio
ID : 1
Format : AC-3
Format/Info : Audio Coding 3
Mode extension : CM (complete main)
Format settings, Endianness : Big
Codec ID : 2000
Duration : 2h 7mn
Bit rate mode : Constant
Bit rate : 192 Kbps
Channel(s) : 2 channels
Channel positions : Front: L R
Sampling rate : 48.0 KHz
Frame rate : 31.250 fps (1536 spf)
Compression mode : Lossy
Stream size : 174 MiB (13%)
Alignment : Split accross interleaves
Interleave, duration : 33 ms (1.00 video frame)
Interleave, preload duratio : 500 ms

E N C O D E R S . N O T E S . . .

SOURCE……: ViDEO…RUS
…………: AUDiO…Th0ravenge
SAMPLE……: Yippers 2 one for dark spots
ADDED NOTE..: vid is ok… ran a few filters to try to fix some of the hotspots and where it was dark. not to bad. audio is pretty good but movie is bad ass… enjoy

dch31pv.th.png SOKDRhJ.th.png vHxKMNz.th.png viK1WDc.th.png w8YQMJ2.th.png

*
*
*
*
*
No links available
No downloads available

Genres

Related movies

Watch Dragon ball super