Remember Me
A password will be e-mailed to you.
Please enter your username or email address. You will receive a link to create a new password via email.
Cancel
PerfectHDMovies.me

Star Wars Episode VII The Force Awakens 2015 480p BRRip AC3 x264-Garmin

Star Wars: Episode VII - The Force Awakens    

PG-13 135 min Hollywood

8.4
IMDB: 8.4/10 457,987 votes

, , ,

Nominated for 5 Oscars. Another 20 wins & 98 nominations.

USA

Report error

Click To Resize

Format                                   : Matroska
 Format version                           : Version 4 / Version 2
 File size                                : 1.80 GiB
 Duration                                 : 2h 18mn
 Overall bit rate                         : 1 864 Kbps
 
 Video
 ID                                       : 1
 Format                                   : AVC
 Format/Info                              : Advanced Video Codec
 Format profile                           : [email protected]
 Format settings, CABAC                   : Yes
 Format settings, ReFrames                : 4 frames
 Codec ID                                 : V_MPEG4/ISO/AVC
 Duration                                 : 2h 18mn
 Bit rate                                 : 1 478 Kbps
 Width                                    : 720 pixels
 Height                                   : 304 pixels
 Display aspect ratio                     : 2.35:1
 Frame rate mode                          : Constant
 Frame rate                               : 23.976 fps
 Color space                              : YUV
 Chroma subsampling                       : 4:2:0
 Bit depth                                : 8 bits
 Scan type                                : Progressive
 Bits/(Pixel*Frame)                       : 0.282
 Stream size                              : 1.39 GiB (77%)
 Writing library                          : x264 core 148 r2638 7599210
 
 
 Language                                 : English
 Default                                  : Yes
 Forced                                   : Yes
 
 Audio
 ID                                       : 2
 Format                                   : AC-3
 Format/Info                              : Audio Coding 3
 Mode extension                           : CM (complete main)
 Format settings, Endianness              : Big
 Codec ID                                 : A_AC3
 Duration                                 : 2h 18mn
 Bit rate mode                            : Constant
 Bit rate                                 : 384 Kbps
 Channel(s)                               : 6 channels
 Channel positions                        : Front: L C R, Side: L R, LFE
 Sampling rate                            : 48.0 KHz
 Compression mode                         : Lossy
 Stream size                              : 379 MiB (21%)
 Language                                 : English
 Default                                  : Yes
 Forced                                   : Yes
 Source Video + Source Audio              : 
 Sample Included                          : Yes
 Click To Resize
 Click To Resize
Click To Resize
Click To Resize
LETWATACH
*
*
*
*
*
 

 

No links available
No downloads available

Genres

Related movies

Watch Dragon ball super