Remember Me
A password will be e-mailed to you.
Please enter your username or email address. You will receive a link to create a new password via email.
Cancel
PerfectHDMovies.me

Star Wars Episode V – The Empire Strikes Back (1980) 720p Blu-Ray x264 [Dual-Audio] [English 5.1 + Hindi 2.0] Esubs [PKG] 1.18 GB

Star Wars: Episode V - The Empire Strikes Back    

PG 124 min Dual Audio Blu-Ray 720p

8.8
IMDB: 8.8/10 739,949 votes

, , ,

Won 1 Oscar. Another 15 wins & 17 nominations.

USA

Report error

image

image

image

General
Unique ID : 225487544317916812800390096133630815742 (0xA9A352453A246774AA40A3F479516DFE)
Complete name : G:\Star Wars Episode V – The Empire Strikes Back (1980) 720p Blu-Ray x264 [Dual-Audio] [English 5.1 + Hindi 2.0] Esubs [PKG]\Star Wars Episode V – The Empire Strikes Back (1980) 720p Blu-Ray x264 [Dual-Audio] [English 5.1 + Hindi 2.0] Esubs [PKG].mkv
Format : Matroska
Format version : Version 4 / Version 2
File size : 1.18 GiB
Duration : 2h 7mn
Overall bit rate : 1 321 Kbps
Encoded date : UTC 2015-07-25 11:28:24
Writing application : mkvmerge v7.7.0 (‘Six Voices’) 64bit built on Feb 28 2015 23:39:33
Writing library : libebml v1.3.1 + libmatroska v1.4.2
DURATION : 02:07:14.412000000
NUMBER_OF_FRAMES : 1538
NUMBER_OF_BYTES : 41437

Video
ID : 1
Format : AVC
Format/Info : Advanced Video Codec
Format profile : [email protected]
Format settings, CABAC : Yes
Format settings, ReFrames : 5 frames
Codec ID : V_MPEG4/ISO/AVC
Duration : 2h 7mn
Bit rate : 1 031 Kbps
Width : 1 280 pixels
Height : 544 pixels
Display aspect ratio : 2.35:1
Frame rate mode : Constant
Frame rate : 23.976 fps
Color space : YUV
Chroma subsampling : 4:2:0
Bit depth : 8 bits
Scan type : Progressive
Bits/(Pixel*Frame) : 0.062
Stream size : 917 MiB (76%)
Default : No
Forced : No

Audio #1
ID : 2
Format : AC-3
Format/Info : Audio Coding 3
Mode extension : CM (complete main)
Format settings, Endianness : Big
Codec ID : A_AC3
Duration : 2h 7mn
Bit rate mode : Constant
Bit rate : 128 Kbps
Channel(s) : 2 channels
Channel positions : Front: L R
Sampling rate : 48.0 KHz
Bit depth : 16 bits
Compression mode : Lossy
Stream size : 117 MiB (10%)
Title : [PKG]
Language : Hindi
Default : Yes
Forced : Yes

Audio #2
ID : 3
Format : AC-3
Format/Info : Audio Coding 3
Mode extension : CM (complete main)
Format settings, Endianness : Big
Codec ID : A_AC3
Duration : 2h 7mn
Bit rate mode : Constant
Bit rate : 160 Kbps
Channel(s) : 6 channels
Channel positions : Front: L C R, Side: L R, LFE
Sampling rate : 48.0 KHz
Bit depth : 16 bits
Compression mode : Lossy
Stream size : 146 MiB (12%)
Title : [PKG]
Language : English
Default : No
Forced : No

Text
ID : 4
Format : UTF-8
Codec ID : S_TEXT/UTF8
Codec ID/Info : UTF-8 Plain Text
Title : [PKG]
Language : English
Default : Yes
Forced : Yes

image

image

*
*
*
*
No links available
No downloads available

Genres

Related movies

Watch Dragon ball super