Remember Me
A password will be e-mailed to you.
Please enter your username or email address. You will receive a link to create a new password via email.
Cancel
PerfectHDMovies.me

Spectre.2015.DVDScr.XVID.AC3.HQ.Hive-CM8

Spectre    

PG-13 148 min HollywoodHollywood Pre-Releases (Latest)

7.0
IMDB: 7.0/10 161,439 votes

, , ,

Nominated for 1 Golden Globe. Another 2 wins & 11 nominations.

UK, USA

Report error


Notes:

DVDScreener 11

Encode:

quality was nice on this.
Slightly added brightness and sharpness and fixed rgb

got very nice
enjoy

Video: 720×304 @bitrate 1700 2pass
Audio: English AC3 2.0 Stereo
Sample: yes included

ps: i forgot to mention, plz support the producers and go to the cinema and watch them on a big screen too
thx

http://www.imdb.com/title/tt2379713/

General
Complete name                  : Spectre.2015.DVDScr.XVID.AC3.HQ.Hive-CM8.avi
Format                         : AVI
Format/Info                    : Audio Video Interleave
Format profile                 : OpenDML
File size                      : 2.10 GiB
Duration                       : 2h 52mn
Overall bit rate               : 1 748 Kbps
Writing application            : Nandub v1.0rc2
Writing library                : Nandub build 1853/release

Video
ID                             : 0
Format                         : MPEG-4 Visual
Format profile                 : Advanced [email protected]
Format settings, BVOP          : 2
Format settings, QPel          : Yes
Format settings, GMC           : No warppoints
Format settings, Matrix        : Default (H.263)
Muxing mode                    : Packed bitstream
Codec ID                       : XVID
Codec ID/Hint                  : XviD
Duration                       : 2h 28mn
Bit rate                       : 1 759 Kbps
Width                          : 720 pixels
Height                         : 304 pixels
Display aspect ratio           : 2.35:1
Frame rate                     : 29.970 fps
Color space                    : YUV
Chroma subsampling             : 4:2:0
Bit depth                      : 8 bits
Scan type                      : Progressive
Compression mode               : Lossy
Bits/(Pixel*Frame)             : 0.268
Stream size                    : 1.82 GiB (87%)
Writing library                : XviD 1.2.1 (UTC 2008-12-04)

Audio
ID                             : 1
Format                         : AC-3
Format/Info                    : Audio Coding 3
Mode extension                 : CM (complete main)
Format settings, Endianness    : Big
Codec ID                       : 2000
Duration                       : 2h 52mn
Source duration                : 2h 28mn
Bit rate mode                  : Constant
Bit rate                       : 256 Kbps
Channel(s)                     : 2 channels
Channel positions              : Front: L R
Sampling rate                  : 48.0 KHz
Bit depth                      : 16 bits
Compression mode               : Lossy
Delay relative to video        : 30ms
Stream size                    : 271 MiB (13%)
Alignment                      : Split accross interleaves
Interleave, duration           : 33 ms (1.00 video frame)
Interleave, preload duration   : 500 ms

Screens

Click To Resize
Click To Resize
Click To Resize
Click To Resize
Click To Resize
Click To Resize
Click To Resize
*
*
*
No links available
No downloads available

Genres

Related movies

Watch Dragon ball super