Remember Me
A password will be e-mailed to you.
Please enter your username or email address. You will receive a link to create a new password via email.
Cancel
PerfectHDMovies.me

Spectre 2015 BluRay 720p x264 Dual Audio (English 5.1- Hindi (Cleaned) AAC…Hon3y 1.50 GB

Spectre    

PG-13 148 min Dual AudioDual Audio Blu-Ray 720p

7.0
IMDB: 7.0/10 161,439 votes

, , ,

Nominated for 1 Golden Globe. Another 2 wins & 11 nominations.

UK, USA

Report error

UK-resized-3.md.jpg

General
Format : Matroska
Format version : Version 4 / Version 2
File size : 1.54 GiB
Duration : 2h 28mn
Overall bit rate : 1 489 Kbps

Video
ID : 1
Format : AVC
Format/Info : Advanced Video Codec
Format profile : [email protected]
Format settings, CABAC : Yes
Format settings, ReFrames : 12 frames
Codec ID : V_MPEG4/ISO/AVC
Duration : 2h 28mn
Bit rate : 1 100 Kbps
Width : 1 280 pixels
Height : 536 pixels
Display aspect ratio : 2.40:1
Frame rate mode : Constant
Frame rate : 23.976 (24000/1001) fps
Color space : YUV
Chroma subsampling : 4:2:0
Bit depth : 8 bits
Scan type : Progressive
Bits/(Pixel*Frame) : 0.067
Stream size : 1.14 GiB (74%)
Title : [email protected]

Audio 1
ID : 2
Format : AAC
Format/Info : Advanced Audio Codec
Format profile : LC
Codec ID : A_AAC
Duration : 2h 28mn
Bit rate : 196 Kbps
Channel(s) : 2 channels
Channel positions : Front: L R
Sampling rate : 48.0 KHz
Frame rate : 46.875 fps (1024 spf)
Compression mode : Lossy
Stream size : 208 MiB (13%)
Title : Hindi—[email protected]
Language : Hindi
Default : Yes
Forced : Yes

Audio 2
ID : 3
Format : AAC
Format/Info : Advanced Audio Codec
Format profile : HE-AAC / LC
Codec ID : A_AAC
Duration : 2h 28mn
Bit rate : 192 Kbps
Channel(s) : 6 channels
Channel positions : Front: L C R, Side: L R, LFE
Sampling rate : 48.0 KHz / 24.0 KHz
Frame rate : 23.438 fps (1024 spf)
Compression mode : Lossy
Delay relative to video : 31ms
Stream size : 202 MiB (13%)
Title : English—[email protected]
Language : English
Default : No
Forced : No

Text
ID : 4
Format : UTF-8
Codec ID : S_TEXT/UTF8
Codec ID/Info : UTF-8 Plain Text
Duration : 1h 16mn
Bit rate : 1 bps
Count of elements : 39
Stream size : 1 023 Bytes (0%)
Title : English—[email protected]
Language : English
Default : Yes
Forced : Yes


*
*
*
*
No links available
No downloads available

Genres

Related movies

Watch Dragon ball super