Remember Me
A password will be e-mailed to you.
Please enter your username or email address. You will receive a link to create a new password via email.
Cancel
PerfectHDMovies.me

Spectre (2015) 1080p[Dual Audio][ENG(5.1)-HINDI(5.1)]~{PHDR}~ 3.83 GB

Spectre    

PG-13 148 min Dual AudioDual Audio Blu-Ray 1080p

7.0
IMDB: 7.0/10 202,174 votes

, , ,

Nominated for 1 Oscar. Another 4 wins & 17 nominations.

UK, USA

Report error

Spectre (2015) 1080p[Dual Audio][ENG(5.1)-HINDI(5.1)]
~{PHDR}~
Video
ID : 1
Format : AVC
Format/Info : Advanced Video Codec
Format profile : [email protected]
Format settings, CABAC : Yes
Format settings, ReFrames : 5 frames
Codec ID : V_MPEG4/ISO/AVC
Duration : 2h 28mn
Bit rate : 2 559 Kbps
Width : 1 920 pixels
Height : 808 pixels
Display aspect ratio : 2.40:1
Frame rate mode : Constant
Frame rate : 23.976 (24000/1001) fps
Color space : YUV
Chroma subsampling : 4:2:0
Bit depth : 8 bits
Scan type : Progressive
Bits/(Pixel*Frame) : 0.069
Stream size : 2.65 GiB (70%)
Default : Yes
Forced : No


Audio #1
ID : 2
Format : AC-3
Format/Info : Audio Coding 3
Mode extension : CM (complete main)
Format settings, Endianness : Big
Codec ID : A_AC3
Duration : 2h 28mn
Bit rate mode : Constant
Bit rate : 448 Kbps
Channel(s) : 6 channels
Channel positions : Front: L C R, Side: L R, LFE
Sampling rate : 48.0 KHz
Frame rate : 31.250 fps (1536 spf)
Compression mode : Lossy
Stream size : 475 MiB (12%)
Title : Bluray~{PHDR}~
Language : Hindi
Default : Yes
Forced : No


Audio #2
ID : 3
Format : AC-3
Format/Info : Audio Coding 3
Mode extension : CM (complete main)
Format settings, Endianness : Big
Codec ID : A_AC3
Duration : 2h 28mn
Bit rate mode : Constant
Bit rate : 640 Kbps
Channel(s) : 6 channels
Channel positions : Front: L C R, Side: L R, LFE
Sampling rate : 48.0 KHz
Frame rate : 31.250 fps (1536 spf)
Compression mode : Lossy
Stream size : 678 MiB (17%)
Title : Bluray~{PHDR}~
Language : English
Default : No
Forced : No


Text #1
ID : 4
Format : PGS
Muxing mode : zlib
Codec ID : S_HDMV/PGS
Codec ID/Info : Picture based subtitle format used on BDs/HD-DVDs
Duration : 2h 19mn
Bit rate : 7 932 bps
Count of elements : 2724
Stream size : 7.93 MiB (0%)
Title : Bluray SDH
Language : English
Default : Yes
Forced : No


Text #2
ID : 5
Format : PGS
Muxing mode : zlib
Codec ID : S_HDMV/PGS
Codec ID/Info : Picture based subtitle format used on BDs/HD-DVDs
Duration : 2h 27mn
Bit rate : 6 131 bps
Count of elements : 2289
Stream size : 6.45 MiB (0%)
Title : Bluray
Language : Hindi
Default : No
Forced : No


Spectre4.th.png Spectre7.th.png Spectre2.th.png Spectre3.th.png Spectre5.th.png Spectre6.th.png Spectre8.th.png Spectre9.th.png Spectre10.th.png Spectre11.th.png Spectre1.th.png

Enjoy Non-Sanskari Bond…!!!




LETWATACH 
*
VODLOCKER
JHEBERG
*
GO4UP

 

No links available
No downloads available

Genres

Related movies

Watch Dragon ball super