Remember Me
A password will be e-mailed to you.
Please enter your username or email address. You will receive a link to create a new password via email.
Cancel
PerfectHDMovies.me

Source Code (2011) BluRay 720p x264 [English 5 1+ Hindi 5 1] AC3 rajatmathur

Source Code    

PG-13 93 min Dual Audio Blu-Ray 720p

7.5
IMDB: 7.5/10 348,538 votes

, , ,

1 win & 8 nominations.

USA, Canada

Report error

Source Code (2011) BluRay 720p x264 [English 5 1+ Hindi 5 1] AC3 rajatmathur @perfecthdmovies

Source Code (2011) BluRay 720p x264 [English 5 1+ Hindi 5 1] AC3 rajatmathur

 

Video
ID : 1
Format : AVC
Format/Info : Advanced Video Codec
Format profile : [email protected]
Codec ID : V_MPEG4/ISO/AVC
Duration : 1h 33mn
Bit rate : 759 Kbps
Width : 1 280 pixels
Height : 720 pixels
Display aspect ratio : 16:9
Frame rate mode : Constant
Frame rate : 23.976 fps
Color space : YUV
Scan type : Progressive
Title : [email protected]
Default : Yes
Forced : No
Audio #1
ID : 2
Format : AC-3
Format/Info : Audio Coding 3
Mode extension : CM (complete main)
Format settings, Endianness : Big
Codec ID : A_AC3
Duration : 1h 33mn
Bit rate mode : Constant
Bit rate : 448 Kbps
Channel(s) : 6 channels
Channel positions : Front: L C R, Side: L R, LFE
Sampling rate : 48.0 KHz
Bit depth : 16 bits
Compression mode : Lossy
Stream size : 299 MiB (27%)
Title : [email protected]
Language : English
Default : No
Forced : No
Audio #2
ID : 3
Format : AC-3
Format/Info : Audio Coding 3
Mode extension : CM (complete main)
Format settings, Endianness : Big
Codec ID : A_AC3
Duration : 1h 33mn
Bit rate mode : Constant
Bit rate : 448 Kbps
Channel(s) : 6 channels
Channel positions : Front: L C R, Side: L R, LFE
Sampling rate : 48.0 KHz
Bit depth : 16 bits
Compression mode : Lossy
Stream size : 299 MiB (27%)
Title : [email protected]
Language : Hindi
Default : Yes
Forced : No
 

*
USERSFILES
*
*
*
*
GO4UP 
 

 

No links available
No downloads available

Genres

Related movies

Watch Dragon ball super