Remember Me
A password will be e-mailed to you.
Please enter your username or email address. You will receive a link to create a new password via email.
Cancel
PerfectHDMovies.me

Singh Is Bliing (2015) Untouched 1080p WEBHD AVC AAC 2CH ESuB M2Tv 6.38 GB

Singh Is Bliing    

N/A 140 min BollywoodBollywood HDRip 1080p

5.6
IMDB: 5.6/10 N/A votes

N/A

India

Report error


Info

General
Complete name : Singh Is Bliing (2015) – Untouched 1080p WEBHD AVC AAC 2CH ESuB – M2Tv
Format : MPEG-TS
File size : 6.38 GiB
Duration : 2h 19mn
Overall bit rate : 6 567 Kbps

Video
Format : AVC
Format/Info : Advanced Video Codec
Format profile : [email protected]
Format settings, CABAC : Yes
Format settings, ReFrames : 4 frames
Format settings, GOP : M=4, N=30
Codec ID : 27
Duration : 2h 19mn
Bit rate : 5 873 Kbps
Width : 1 920 pixels
Height : 1 080 pixels
Display aspect ratio : 16:9
Frame rate mode : Variable
Color space : YUV
Chroma subsampling : 4:2:0
Bit depth : 8 bits
Scan type : Progressive
Stream size : 5.88 GiB (92%)

Audio
Format : AAC
Format/Info : Advanced Audio Codec
Format version : Version 4
Format profile : LC
Muxing mode : ADTS
Codec ID : 15
Duration : 2h 19mn
Bit rate mode : Constant / Variable
Bit rate : 192 Kbps
Minimum bit rate : 189 Kbps
Maximum bit rate : 197 Kbps
Channel(s) : 2 channels
Channel positions : Front: L R
Sampling rate : 48.0 KHz
Compression mode : Lossy
Delay relative to video : -42ms
Stream size : 191 MiB (3%)

 

Director

Stars

Cast

No links available
No downloads available

Genres

Related movies

Watch Dragon ball super