Remember Me
A password will be e-mailed to you.
Please enter your username or email address. You will receive a link to create a new password via email.
Cancel
PerfectHDMovies.me

Simon Sez (1999) 720p WEB-DL x264 Dual-Audio [Hindi 2.0 – Eng] – monu987 2.80 GB

Simon Sez    

PG-13 85 min Dual AudioDual Audio Blu-Ray 720p

2.5
IMDB: 2.5/10 5,893 votes

, , ,

1 win.

Germany, Belgium, USA

Report error

Simon Sez (1999) 720p WEB-DL x264 Dual-Audio [Hindi 2.0 - Eng] - monu987 2.80 GB

Simon Sez (1999) 720p WEB-DL x264 Dual-Audio [Hindi 2.0 – Eng] – monu987 2.80 GB

Format : Matroska
Format version : Version 4 / Version 2
File size : 2.75 GiB
Duration : 1h 25mn
Overall bit rate : 4 595 Kbps
Movie name : Simon Sez (1999) 720p - monu987
Encoded date : UTC 2016-11-07 17:20:58
Writing application : mkvmerge v7.9.0 ('Birds') 64bit
Writing library : libebml v1.3.1 + libmatroska v1.4.2

Video
ID : 1
Format : AVC
Format/Info : Advanced Video Codec
Format profile : [email protected]
Format settings, CABAC : No
Format settings, ReFrames : 2 frames
Codec ID : V_MPEG4/ISO/AVC
Duration : 1h 25mn
Bit rate : 3 928 Kbps
Width : 1 280 pixels
Height : 718 pixels
Display aspect ratio : 16:9
Frame rate mode : Constant
Frame rate : 23.976 fps
Color space : YUV
Chroma subsampling : 4:2:0
Bit depth : 8 bits
Scan type : Progressive
Bits/(Pixel*Frame) : 0.178
Stream size : 2.35 GiB (85%)
Title : monu987
Language : English
Default : Yes
Forced : Yes
Color range : Limited
Color primaries : BT.709
Transfer characteristics : BT.709
Matrix coefficients : BT.709

Audio #1
ID : 2
Format : AC-3
Format/Info : Audio Coding 3
Mode extension : CM (complete main)
Format settings, Endianness : Big
Codec ID : A_AC3
Duration : 1h 25mn
Bit rate mode : Constant
Bit rate : 192 Kbps
Channel(s) : 2 channels
Channel positions : Front: L R
Sampling rate : 48.0 KHz
Compression mode : Lossy
Stream size : 117 MiB (4%)
Title : monu987
Language : Hindi
Default : Yes
Forced : Yes

Audio #2
ID : 3
Format : AC-3
Format/Info : Audio Coding 3
Mode extension : CM (complete main)
Format settings, Endianness : Big
Codec ID : A_AC3
Duration : 1h 25mn
Bit rate mode : Constant
Bit rate : 384 Kbps
Channel(s) : 6 channels
Channel positions : Front: L C R, Side: L R, LFE
Sampling rate : 48.0 KHz
Compression mode : Lossy
Stream size : 235 MiB (8%)
Title : monu987
Language : English
Default : No
Forced : No

Text
ID : 4
Format : UTF-8
Codec ID : S_TEXT/UTF8
Codec ID/Info : UTF-8 Plain Text
Title : monu987
Language : English
Default : No
Forced : No

ss
Simon Sez (1999) 720p WEB-DL x264 Dual-Audio [Hindi 2.0 - Eng] - monu987 2.80 GB Simon Sez (1999) 720p WEB-DL x264 Dual-Audio [Hindi 2.0 - Eng] - monu987 2.80 GBSimon Sez (1999) 720p WEB-DL x264 Dual-Audio [Hindi 2.0 - Eng] - monu987 2.80 GB

wo

*
*
FLASHSX
*
LETWATCH
dl

No links available
No downloads available

Genres

Related movies

Watch Dragon ball super