Remember Me
A password will be e-mailed to you.
Please enter your username or email address. You will receive a link to create a new password via email.
Cancel
PerfectHDMovies.me

Shiva(1989).Hindi.DVDRip.MKV.AVC.AAC.1.6Gb-{By Kamdev} 1.6 Gb

Shiva    

N/A 145 min BollywoodBollywood DVDRip 720p

8.1
IMDB: 8.1/10 1,305 votes

, , ,

2 wins & 1 nomination.

India

Report error

Direct Download Links Or Watch Online Free With Resumble Links

Shiva(1989).Hindi.DVDRip.MKV.AVC.AAC.1.6Gb-{By Kamdev}


 
 General
 
 Complete name : Shiva
 Format : Matroska
 Format version : Version 2
 File size : 1.60 GiB
 Duration : 2h 41mn
 Overall bit rate : 1 414 Kbps
 Encoded date : UTC 2016-05-22 20:34:40
 Writing application : mkvmerge v8.5.2 ('Crosses') 32bit
 Writing library : libebml v1.3.3 + libmatroska v1.4.4
 
 Video 
 ID : 1
 Format : AVC
 Format/Info : Advanced Video Codec
 Format profile : [email protected]
 Format settings, CABAC : Yes
 Format settings, ReFrames : 8 frames
 Codec ID : V_MPEG4/ISO/AVC
 Duration : 2h 41mn
 Bit rate : 1 287 Kbps
 Width : 704 pixels
 Height : 384 pixels
 Display aspect ratio : 2.2:1
 Frame rate mode : Constant
 Frame rate : 23.976 (24000/1001) fps
 Color space : YUV
 Chroma subsampling : 4:2:0
 Bit depth : 8 bits
 Scan type : Progressive
 Bits/(Pixel*Frame) : 0.199
 Stream size : 1.45 GiB (91%)
 Writing library : x264 core 148 r2638 7599210
 Default : Yes
 Forced : No
 
 Audio 
 ID : 2
 Format : AAC
 Format/Info : Advanced Audio Codec
 Format profile : LC
 Codec ID : A_AAC
 Duration : 2h 41mn
 Bit rate : 125 Kbps
 Channel(s) : 2 channels
 Channel positions : Front: L R
 Sampling rate : 44.1 KHz
 Frame rate : 43.066 fps (1024 spf)
 Compression mode : Lossy
 Delay relative to video : 10ms
 Stream size : 144 MiB (9%)
 Default : Yes
 Forced : No

 

Shiva(1989).Hindi.DVDRip.MKV.AVC.AAC.1.6Gb-{By Kamdev}

Shiva(1989).Hindi.DVDRip.MKV.AVC.AAC.1.6Gb-{By Kamdev}

Shiva(1989).Hindi.DVDRip.MKV.AVC.AAC.1.6Gb-{By Kamdev}

Shiva(1989).Hindi.DVDRip.MKV.AVC.AAC.1.6Gb-{By Kamdev}

LETWATACH
*
*
*
*
*
*
*
GO4UP 
No links available
No downloads available

Genres

Related movies

Watch Dragon ball super