Remember Me
A password will be e-mailed to you.
Please enter your username or email address. You will receive a link to create a new password via email.
Cancel
PerfectHDMovies.me

Sherlock Holmes: A Game of Shadows (2011) BluRay 720p x264 Dual Audio [English 2 0 + Hindi 2 0] AC3 rajatmathur

Sherlock Holmes: A Game of Shadows    

PG-13 129 min Dual Audio Blu-Ray 720p

7.5
IMDB: 7.5/10 311,990 votes

, , ,

2 wins & 10 nominations.

USA

Report error

XCxPKkK

Sherlock Holmes: A Game of Shadows (2011) BluRay 720p x264 Dual Audio [English 2 0 + Hindi 2 0] AC3 rajatmathur

Video
ID : 1
Format : AVC
Format/Info : Advanced Video Codec
Format profile : [email protected]
Format settings, CABAC : Yes
Duration : 2h 8mn
Bit rate : 805 Kbps
Width : 1 280 pixels
Height : 528 pixels
Display aspect ratio : 2.40:1
Frame rate mode : Constant
Frame rate : 23.976 fps
Color space : YUV
Chroma subsampling : 4:2:0
Bit depth : 8 bits
Scan type : Progressive
Stream size : 726 MiB (84%)
Title : [email protected]
Audio #1
ID : 2
Format : AC-3
Format/Info : Audio Coding 3
Mode extension : CM (complete main)
Format settings, Endianness : Big
Codec ID : A_AC3
Duration : 2h 8mn
Bit rate mode : Constant
Bit rate : 64.0 Kbps
Channel(s) : 2 channels
Channel positions : Front: L R
Sampling rate : 48.0 KHz
Bit depth : 16 bits
Compression mode : Lossy
Stream size : 58.9 MiB (7%)
Title : [email protected]
Language : English
Default : Yes
Forced : No
Audio #2
ID : 3
Format : AC-3
Format/Info : Audio Coding 3
Mode extension : CM (complete main)
Format settings, Endianness : Big
Codec ID : A_AC3
Duration : 2h 8mn
Bit rate mode : Constant
Bit rate : 64.0 Kbps
Channel(s) : 2 channels
Channel positions : Front: L R
Sampling rate : 48.0 KHz
Bit depth : 16 bits
Compression mode : Lossy
Stream size : 58.9 MiB (7%)
Title : [email protected]
Language : Hindi
Default : No
Forced : No

*
USERSFILES
*
*
*
*
GO4UP 
 

 

No links available
No downloads available

Genres

Related movies

Watch Dragon ball super