Remember Me
A password will be e-mailed to you.
Please enter your username or email address. You will receive a link to create a new password via email.
Cancel
PerfectHDMovies.me

Shaolin Temple 3 Martial Arts of Shaolin (1986) 1080p BluRay x264 [Hindi 2.0 – Chinese] – monu987 1.88 GB

Martial Arts of Shaolin    

N/A 99 min Dual AudioDual Audio Blu-Ray 1080p

6.7
IMDB: 6.7/10 1,190 votes

, , ,

1 nomination.

Hong Kong, China

Report error

 

Shaolin Temple 3 Martia Arts of Shaolin (1986) 1080p BluRay x264 [Hindi 2.0 – Chinese] – monu987
Format : Matroska
Format version : Version 4 / Version 2
File size : 1.85 GiB
Duration : 1h 33mn
Overall bit rate : 2 825 Kbps


Video
ID : 1
Format : AVC
Format/Info : Advanced Video Codec
Format profile : [email protected]
Format settings, CABAC : Yes
Format settings, ReFrames : 5 frames
Codec ID : V_MPEG4/ISO/AVC
Duration : 1h 33mn
Bit rate : 2 503 Kbps
Width : 1 912 pixels
Height : 808 pixels
Display aspect ratio : 2.35:1
Frame rate mode : Constant
Frame rate : 23.976 fps
Color space : YUV
Chroma subsampling : 4:2:0
Bit depth : 8 bits
Scan type : Progressive
Bits/(Pixel*Frame) : 0.068
Stream size : 1.61 GiB (87%)
Title : monu987
Writing library : x264 core 142 r2431 ac76440
Default : Yes
Forced : No
Color range : Limited
Color primaries : Generic film
Transfer characteristics : BT.709
Matrix coefficients : BT.709

Audio #1
ID : 2
Format : AC-3
Format/Info : Audio Coding 3
Mode extension : CM (complete main)
Format settings, Endianness : Big
Codec ID : A_AC3
Duration : 1h 33mn
Bit rate mode : Constant
Bit rate : 128 Kbps
Channel(s) : 2 channels
Channel positions : Front: L R
Sampling rate : 44.1 KHz
Bit depth : 16 bits
Compression mode : Lossy
Stream size : 85.9 MiB (5%)
Title : monu987
Language : Hindi
Default : Yes
Forced : Yes

Audio #2
ID : 3
Format : AC-3
Format/Info : Audio Coding 3
Mode extension : CM (complete main)
Format settings, Endianness : Big
Codec ID : A_AC3
Duration : 1h 33mn
Bit rate mode : Constant
Bit rate : 192 Kbps
Channel(s) : 6 channels
Channel positions : Front: L C R, Side: L R, LFE
Sampling rate : 48.0 KHz
Bit depth : 16 bits
Compression mode : Lossy
Stream size : 129 MiB (7%)
Title : monu987
Language : Chinese
Default : No
Forced : No

03.md.png 01.md.png
09.md.png 02.md.png
05.md.png 08.md.png
10.md.png 06.md.png
07.md.png 04.md.png

Thanks To PerfectHDMovies Admins and Mods……..Keep it up GuysSpecial Thanks To – TMX, Invincible,Sadhu’s-HD,Sher-Khan,sbaz44,TBI,DrStar,Dredd,David,Shawn-James, Abu-Hamza

Respect To All Teams – HDDR,Gpsoft,IcTv,SDR,HKRG,TEAM warriors,TeamTNT,M2TV,Hon3y,Team-Exd,XMR,TMRG,PerfectHDMovies and other past-present teams

Also Thanks To All Hollywood Hindi Dubbed Movie Lovers For There Appreciation (y)

LETWATACH 
*
VODLOCKER
USERSCLOUD
*
USERFILES
*

 

No links available
No downloads available

Genres

Related movies

Watch Dragon ball super