Remember Me
A password will be e-mailed to you.
Please enter your username or email address. You will receive a link to create a new password via email.
Cancel
PerfectHDMovies.me

Shankhachil.(2016) – 1080p – WebHD.Rip – x264.AC3 – 5.1Ch – [DDR] 4.60GB

Shankhachil    

N/A 135 min BengaliSouth

7.9
IMDB: 7.9/10 51 votes

, , ,

1 win.

Bangladesh, India

Report error

Shankhachil.(2016) - 1080p - WebHD.Rip - x264.AC3 - 5.1Ch - [DDR] 4.60GB

Shankhachil.(2016) – 1080p – WebHD.Rip – x264.AC3 – 5.1Ch – [DDR] 4.60GB

General
Format: Matroska
Format version: Version 4 / Version 2
File size: 4.60 GiB
Duration: 2 h 09 min
Overall bit rate mode: Variable
Overall bit rate: 5069 kb/s

Video{/B]
Codec ID: V_MPEG4/ISO/AVC
Duration: 2 h 09 min
Bit rate mode: Variable
Bit rate: 4619 kb/s
Maximum bit rate: 24.0 Mb/s
Width: 1 280 pixels
Height: 544 pixels
Display aspect ratio: 2.35:1
Frame rate mode: Constant
Frame rate: 25.000 FPS
Color space: YUV
Chroma subsampling: 4:2:0
Bit depth: 8 bits
Scan type: Progressive
Bits/(Pixel*Frame): 0.118
Stream size: 4.19 GiB (91%)
Writing library: x264 core 148 r2638 7599210

Audio
Format: AC3
Duration: 2 h 09 min
Bit rate: 448 kb/s
Channel(s): 6 channels
Channel positions: Front: Front: L C R, Side: L R, LFE
Sampling rate: 48.0 kHz
Frame rate: 31.250 FPS (1536 spf)
Compression mode: Lossy
Delay relative to video: 31 ms
Stream size: 415 MiB (6%)
Default: Yes
Forced : No

 
Shankhachil.(2016) - 1080p - WebHD.Rip - x264.AC3 - 5.1Ch - [DDR] 4.60GBShankhachil.(2016) - 1080p - WebHD.Rip - x264.AC3 - 5.1Ch - [DDR] 4.60GBShankhachil.(2016) - 1080p - WebHD.Rip - x264.AC3 - 5.1Ch - [DDR] 4.60GB

LETWATCH
*
VODLOCKER
*
*
*
*
*
 

 

No links available
No downloads available

Genres

Related movies

Watch Dragon ball super