Remember Me
A password will be e-mailed to you.
Please enter your username or email address. You will receive a link to create a new password via email.
Cancel
PerfectHDMovies.me

Sath Uchakay (2016) 720p DesiPreDVDRip – AC3- [DUS Exclusive] 1.5GB

Saat uchakkey    

N/A N/A BollywoodBollywood Pre-Releases (Latest)

N/A
IMDB: N/A/10 N/A votes

, , ,

N/A

India

Report error

 Sath Uchakay (2016) 720p DesiPreDVDRip - AC3- [DUS Exclusive] 1.5GB

 Sath Uchakay (2016) 720p DesiPreDVDRip – AC3- [DUS Exclusive] 1.5GB

General
Complete name               : Sath Uchakay (2016) 720p DesiPreDVDRip - AC3- [DUS Exclusive].mkv
Format                      : Matroska
Format version              : Version 2
File size                   : 1.50 GiB
Duration                    : 2h 14mn
Overall bit rate            : 1 597 Kbps
Encoded By                  : S3AR3

Video
ID                          : 1
Format                      : AVC
Format/Info                 : Advanced Video Codec
Format profile              : [email protected]
Format settings, CABAC      : Yes
Format settings, ReFrames   : 4 frames
Codec ID                    : V_MPEG4/ISO/AVC
Duration                    : 2h 14mn
Bit rate                    : 1 211 Kbps
Width                       : 1 280 pixels
Height                      : 544 pixels
Display aspect ratio        : 2.35:1
Frame rate mode             : Constant
Frame rate                  : 23.976 (24000/1001) fps
Color space                 : YUV
Chroma subsampling          : 4:2:0
Bit depth                   : 8 bits
Scan type                   : Progressive
Bits/(Pixel*Frame)          : 0.073
Stream size                 : 1.14 GiB (76%)
Writing library             : x264 core
Default                     : Yes
Forced                      : No

Audio
ID                          : 2
Format                      : AC-3
Format/Info                 : Audio Coding 3
Mode extension              : CM (complete main)
Format settings, Endianness : Big
Codec ID                    : A_AC3
Duration                    : 2h 14mn
Bit rate mode               : Constant
Bit rate                    : 384 Kbps
Channel(s)                  : 6 channels
Channel positions           : Front: L C R, Side: L R, LFE
Sampling rate               : 48.0 KHz
Frame rate                  : 31.250 fps (1536 spf)
Compression mode            : Lossy
Stream size                 : 369 MiB (24%)
Language                    : new
Default                     : Yes
Forced                      : No

ss

No links available
No downloads available

Genres

Related movies

Watch Dragon ball super