Remember Me
A password will be e-mailed to you.
Please enter your username or email address. You will receive a link to create a new password via email.
Cancel
PerfectHDMovies.me

Sardar Ji 2 (2016) x264 1CD Desipdvd Rip – DDR 695Mb

Sardaarji 2    

N/A N/A BollywoodBollywood Pre-Releases (Latest)Uncategorized

7.9
IMDB: 7.9/10 N/A votes

, , ,

N/A

Australia, India

Report error

Sardar Ji 2 (2016) x264 1CD Desipdvd Rip - DDR

Sardar Ji 2 (2016) x264 1CD Desipdvd Rip – DDR 695Mb

- PollywooD MoviE -
**- SARDAR JI - 2 -**
- 2016 -
** 1 CD DesiPDvD rip / x264 / AAC 2.0 **
No subtitle(s)

General
Source = DesiPDVD @ DUS
Format : Matroska
File size : 695 MiB
Duration : 2h 13mn
Overall bit rate : 726 Kbps
Encoded date : UTC 2016-06-26 01:48:02

Video
Format : AVC
Format profile : [email protected]
Format settings, CABAC : Yes
Format settings, ReFrames : 8 frames
Duration : 2h 13mn
Bit rate : 660 Kbps
Width : 640 pixels
Height : 272 pixels
Display aspect ratio : 2.35:1
Frame rate mode : Constant
Frame rate : 25.000 fps
Bit depth : 8 bits
Scan type : Progressive
Bits/(Pixel*Frame) : 0.152
Stream size : 632 MiB (91%)
Language : English
Default : Yes
Forced : No

Audio
Format : AAC
Format profile : LC
Duration : 2h 13mn
Bit rate : 64.0 Kbps
Channel(s) : 2 channels
Channel positions : Front: L R
Sampling rate : 44.1 KHz
Frame rate : 43.066 fps (1024 spf)
Compression mode : Lossy
Delay relative to video : 10ms
Stream size : 61.3 MiB (9%)
Language : Panjabi
Default : Yes
Forced : No

Chapters: No - 1
Sample: YES - included 

A DDR 8th Anniversary Exclusive Release...!
No links available
No downloads available

Genres

Related movies

Watch Dragon ball super