Remember Me
A password will be e-mailed to you.
Please enter your username or email address. You will receive a link to create a new password via email.
Cancel
PerfectHDMovies.me

Sardaar.Gabbar.Singh.(2016).[Org.Hindi].720p.DVDRip.x264.AAC.-.7Star 2.47 GiB

Sardaar Gabbar Singh    

N/A 164 min BollywoodBollywood DVDRip 720p

5.2
IMDB: 5.2/10 1,245 votes

, , ,

N/A

India

Report error

Sardaar.Gabbar.Singh.(2016).[Org.Hindi].720p.DVDRip.x264.AAC.-.7Star

Sardaar.Gabbar.Singh.(2016).[Org.Hindi].720p.DVDRip.x264.AAC.-.7Star

General
Complete name                            : Sardaar Gabbar Singh (2016) [Org Hindi]
Format                                   : MPEG-4
Format profile                           : Base Media 
Codec ID                                 : mp42 
File size                                : 2.47 GiB
Duration                                 : 2 h 44 min
Overall bit rate mode                    : Variable
Overall bit rate                         : 2 146 kb/s

Video
ID                                       : 1
Format                                   : AVC
Format/Info                              : Advanced Video Codec
Format profile                           : [email protected]
Format settings, CABAC                   : Yes
Format settings, ReFrames                : 1 frame
Codec ID                                 : avc1
Codec ID/Info                            : Advanced Video Coding
Duration                                 : 2 h 44 min
Bit rate                                 : 1 952 kb/s
Maximum bit rate                         : 10.5 Mb/s
Width                                    : 1 280 pixels
Height                                   : 544 pixels
Display aspect ratio                     : 2.35:1
Frame rate mode                          : Constant
Frame rate                               : 23.976 (24000/1001) FPS
Color space                              : YUV
Chroma subsampling                       : 4:2:0
Bit depth                                : 8 bits
Scan type                                : Progressive
Bits/(Pixel*Frame)                       : 0.117
Stream size                              : 2.24 GiB (91%)
Tagged date                              : UTC 2016-09-04 02:36:58
Color range                              : Limited

Audio
ID                                       : 2
Format                                   : AAC
Format/Info                              : Advanced Audio Codec
Format profile                           : LC
Codec ID                                 : 40
Duration                                 : 2 h 44 min
Bit rate mode                            : Variable
Bit rate                                 : 192 kb/s
Maximum bit rate                         : 202 kb/s
Channel(s)                               : 2 channels
Channel positions                        : Front: L R
Sampling rate                            : 44.1 kHz
Frame rate                               : 43.066 FPS (1024 spf)
Compression mode                         : Lossy
Stream size                              : 226 MiB (9%)
Title                                    : 7Star

 

Sardaar.Gabbar.Singh.(2016).[Org.Hindi].720p.DVDRip.x264.AAC.-.7StarSardaar.Gabbar.Singh.(2016).[Org.Hindi].720p.DVDRip.x264.AAC.-.7StarSardaar.Gabbar.Singh.(2016).[Org.Hindi].720p.DVDRip.x264.AAC.-.7Star
LETWATACH
*
*
*
*
*
*
*
GO4UP 

No links available
No downloads available

Genres

Related movies

Watch Dragon ball super