Remember Me
A password will be e-mailed to you.
Please enter your username or email address. You will receive a link to create a new password via email.
Cancel
PerfectHDMovies.me

Sardaar Gabbar Singh (2016) Hindi Desi pre DvD Rip x264 440Mb

BollywoodBollywood Pre-Releases (Latest)

IMDB: /10 votes

Report error

 Sardaar Gabbar Singh (2016) Hindi Desi pre DvD Rip 440Mb

PW9I6JY.jpg

 Video
ID : 1
Format : AVC
Format/Info : Advanced Video Codec
Format profile : [email protected]
Format settings, CABAC : Yes
Format settings, ReFrames : 7 frames
Codec ID : V_MPEG4/ISO/AVC
Duration : 2h 41mn
Bit rate : 330 Kbps
Width : 640 pixels
Height : 272 pixels
Display aspect ratio : 2.35:1
Frame rate mode : Constant
Frame rate : 23.976 (24000/1001) fps
Color space : YUV
Chroma subsampling : 4:2:0
Bit depth : 8 bits
Scan type : Progressive
Bits/(Pixel*Frame) : 0.079
Stream size : 383 MiB (87%)
Writing library : x264 core 142 r2479 dd79a61
Encoding settings : cabac=1 / ref=7 / deblock=1:-1:-1 / analyse=0x1:0x111 / me=hex / subme=4 / psy=1 / psy_rd=1.00:0.15 / mixed_ref=0 / me_range=16 / chroma_me=1 / trellis=1 / 8x8dct=0 / cqm=0 / deadzone=21,11 / fast_pskip=1 / chroma_qp_offset=-1 / threads=3 / lookahead_threads=1 / sliced_threads=0 / nr=0 / decimate=1 / interlaced=0 / bluray_compat=0 / constrained_intra=0 / bframes=3 / b_pyramid=2 / b_adapt=1 / b_bias=0 / direct=1 / weightb=1 / open_gop=0 / weightp=2 / keyint=240 / keyint_min=24 / scenecut=40 / intra_refresh=0 / rc_lookahead=20 / rc=abr / mbtree=1 / bitrate=330 / ratetol=1.0 / qcomp=0.60 / qpmin=0 / qpmax=69 / qpstep=4 / ip_ratio=1.40 / aq=1:1.00
Default : Yes
Forced : No
Color range : Limited
Color primaries : BT.601 PAL
Transfer characteristics : BT.709
Matrix coefficients : BT.601

Audio
ID : 2
Format : AAC
Format/Info : Advanced Audio Codec
Format profile : HE-AAC / LC
Codec ID : A_AAC
Duration : 2h 41mn
Bit rate : 48.0 Kbps
Channel(s) : 2 channels
Channel positions : Front: L R
Sampling rate : 44.1 KHz / 22.05 KHz
Frame rate : 21.533 fps (1024 spf)
Compression mode : Lossy
Delay relative to video : -115ms
Stream size : 55.6 MiB (13%)
Title : Stereo
Default : Yes
Forced : No

 e7rC6IA.png

YwOe8Pe.png

pNul7vV.png

UOrSaKX.png
Source Credit [Thanks] – IcTv

*
USERSCLOUD
*
*
*
*
*
 

 

No links available
No downloads available

Genres

Related movies

Watch Dragon ball super