Remember Me
A password will be e-mailed to you.
Please enter your username or email address. You will receive a link to create a new password via email.
Cancel
PerfectHDMovies.me

Sanam Re (2016) AVC x264 DVDRip AC3-5.1 [Sparda_M2Tv]

Sanam Re    

N/A N/A Bollywood

3.6
IMDB: 3.6/10 945 votes

, , ,

N/A

India

Report error

Ripper                      : Sparda
Source                      : DDR-DVD9
Complete name               : Sanam Re (2016) x264 DVDRip D.D-5.1 E-Sub Sparda_M2Tv.mp4
Format                      : MPEG-4
Format profile              : Base Media
Codec ID                    : isom (isom/avc1/iso6)
File size                   : 1.45 GiB
Duration                    : 2h 3mn
Overall bit rate            : 1 680 Kbps
Encoded date                : UTC 2016-04-04 16:45:08
Tagged date                 : UTC 2016-04-04 16:45:08

Video
Format                      : AVC
Format/Info                 : Advanced Video Codec
Format profile              : [email protected]
Format settings, CABAC      : Yes
Format settings, ReFrames   : 5 frames
Duration                    : 2h 3mn
Bit rate                    : 1 549 Kbps
Maximum bit rate            : 6 969 Kbps
Width                       : 720 pixels
Height                      : 368 pixels
Display aspect ratio        : 2.35:1
Original display aspect rat : 2.35:1
Frame rate mode             : Constant
Frame rate                  : 23.976 (24000/1001) fps
Original frame rate         : 23.976 (23976/1000) fps
Color space                 : YUV
Chroma subsampling          : 4:2:0
Bit depth                   : 8 bits
Scan type                   : Progressive
Bits/(Pixel*Frame)          : 0.244
Stream size                 : 1.34 GiB (92%)
Title                       : [email protected]
Encoded date                : UTC 2016-04-04 16:45:08
Tagged date                 : UTC 2016-04-04 16:45:23
Color range                 : Full
Color primaries             : BT.709
Transfer characteristics    : BT.709
Matrix coefficients         : BT.709

Audio
Format                      : AC-3
Format settings, Endianness : Big
Duration                    : 2h 3mn
Bit rate mode               : Constant
Bit rate                    : 128 Kbps
Maximum bit rate            : 135 Kbps
Channel(s)                  : 6 channels
Channel positions           : Front: L C R, Side: L R, LFE
Sampling rate               : 48.0 KHz
Frame rate                  : 31.250 fps (1536 spf)
Bit depth                   : 16 bits
Compression mode            : Lossy
Stream size                 : 113 MiB (8%)
Title                       : [email protected]
Language                    : new
Encoded date                : UTC 2016-04-04 16:45:21
Tagged date                 : UTC 2016-04-04 16:45:23
 
 
LETWATACH
*
USERSFILES
*
*
*
*
 

 

No links available
No downloads available

Genres

Related movies

Watch Dragon ball super