Remember Me
A password will be e-mailed to you.
Please enter your username or email address. You will receive a link to create a new password via email.
Cancel
PerfectHDMovies.me

Sanam Re (2016) – 720p – DVD-Rip – Hindi – x264 – AC3 – 5.1 – Esubs – [PKG] ~ 1.11 GB

BollywoodBollywood DVDRip 720p

IMDB: /10 votes

Report error

Sanam Re (2016) – 720p – DVD-Rip – Hindi – x264 – AC3 – 5.1 – Esubs – [PKG]

1450334036_sanam-re-posterc19fe.jpg

 General
Unique ID : 233605722772950844814826730393653085589 (0xAFBED35EE7563F1EA9A516DB7C2E0595)
Complete name : E:\encode\Sanam Re (2016) - 720p - DVD-Rip - Hindi - x264 - AC3 - 5.1 - Esubs - [PKG]\Sanam Re (2016) - 720p - DVD-Rip - Hindi - x264 - AC3 - 5.1 - Esubs - [PKG].mkv
Format : Matroska
Format version : Version 4 / Version 2
File size : 1.10 GiB
Duration : 1h 54mn
Overall bit rate : 1 385 Kbps
Movie name : Sanam Re (2016) - 720p - DVD-Rip - Hindi - x264 - AC3 - 5.1 - Esubs - [PKG]
Encoded date : UTC 2016-04-08 03:14:38
Writing application : mkvmerge v8.9.0 ('Father Daughter') 64bit
Writing library : libebml v1.3.3 + libmatroska v1.4.4
DURATION : 01:54:07.840000000
NUMBER_OF_FRAMES : 213995
NUMBER_OF_BYTES : 191739520

Video
ID : 1
Format : AVC
Format/Info : Advanced Video Codec
Format profile : [email protected]
Format settings, CABAC : Yes
Format settings, ReFrames : 5 frames
Codec ID : V_MPEG4/ISO/AVC
Duration : 1h 54mn
Bit rate : 1 158 Kbps
Width : 1 280 pixels
Height : 544 pixels
Display aspect ratio : 2.35:1
Frame rate mode : Constant
Frame rate : 25.000 fps
Original frame rate : 24.975 fps
Color space : YUV
Chroma subsampling : 4:2:0
Bit depth : 8 bits
Scan type : Progressive
Bits/(Pixel*Frame) : 0.067
Stream size : 925 MiB (82%)
Title : [PKG]
Writing library : x264 core 133 r2334 a3ac64b
Default : No
Forced : No

Audio
ID : 3
Format : AC-3
Format/Info : Audio Coding 3
Mode extension : CM (complete main)
Format settings, Endianness : Big
Codec ID : A_AC3
Duration : 1h 54mn
Bit rate mode : Constant
Bit rate : 224 Kbps
Channel(s) : 6 channels
Channel positions : Front: L C R, Side: L R, LFE
Sampling rate : 48.0 KHz
Bit depth : 16 bits
Compression mode : Lossy
Stream size : 183 MiB (16%)
Title : [PKG]
Language : Hindi
Default : Yes
Forced : Yes

Text
ID : 2
Format : VobSub
Muxing mode : zlib
Codec ID : S_VOBSUB
Codec ID/Info : The same subtitle format used on DVDs
Title : [PKG]
Language : English
Default : Yes
Forced : No
vlcsnap-2016-04-08-19h14m18s133.png
vlcsnap-2016-04-08-19h14m59s30.png
vlcsnap-2016-04-08-19h15m02s66.png
vlcsnap-2016-04-08-19h15m21s255.png
vlcsnap-2016-04-08-19h16m09s219.png
vlcsnap-2016-04-08-19h16m19s70.png
vlcsnap-2016-04-08-19h16m29s134.png
vlcsnap-2016-04-08-19h17m05s5.png
vlcsnap-2016-04-08-19h17m16s131.png
vlcsnap-2016-04-08-19h17m33s35.png
vlcsnap-2016-04-08-19h17m50s207.png
SanamRe2016-720p-DVD-Rip-Hindi-x264-AC3-5.1-Esubs-PKG.mkv_thumbs_2016.04.08_19.13.52.jpgThanks to Honey

LETWATACH
*
*
*
*
*
*
 

 

No links available
No downloads available

Genres

Related movies

Watch Dragon ball super