Remember Me
A password will be e-mailed to you.
Please enter your username or email address. You will receive a link to create a new password via email.
Cancel
PerfectHDMovies.me

Sanam Re (2016) – 1CD – Desi PreDVD-Rip – Hindi – x264 – MP3 – Mafiaking – M2Tv ~ 697 MB

Sanam Re    

N/A N/A BollywoodBollywood Pre-Releases (Latest)

4.0
IMDB: 4.0/10 N/A votes

, , ,

N/A

India

Report error

Sanam Re (2016) 1CD DesiPDVD XviD MP3 - DUS @PerfectHDMovies

 

Sanam Re (2016) – 1CD – Desi PreDVD-Rip – Hindi – x264 – MP3 – Mafiaking – M2Tv

 

General
Format : Matroska
Format version : Version 4 / Version 2
File size : 697 MiB
Duration : 1h 53mn
Overall bit rate : 858 Kbps

Video
ID : 1
Format : AVC
Format/Info : Advanced Video Codec
Format profile : [email protected]
Format settings, CABAC : Yes
Format settings, ReFrames : 4 frames
Codec ID : V_MPEG4/ISO/AVC
Duration : 1h 53mn
Bit rate : 776 Kbps
Width : 640 pixels
Height : 272 pixels
Display aspect ratio : 2.35:1
Frame rate mode : Constant
Frame rate : 25.000 fps
Color space : YUV
Chroma subsampling : 4:2:0
Bit depth : 8 bits
Scan type : Progressive
Bits/(Pixel*Frame) : 0.178
Stream size : 618 MiB (89%)
Title : Mafiaking
Language : Hindi
Default : Yes
Forced : No

Audio
ID : 2
Format : MPEG Audio
Format version : Version 1
Format profile : Layer 3
Mode : Joint stereo
Mode extension : MS Stereo
Codec ID : A_MPEG/L3
Codec ID/Hint : MP3
Duration : 1h 53mn
Bit rate mode : Constant
Bit rate : 80.0 Kbps
Channel(s) : 2 channels
Sampling rate : 32.0 KHz
Compression mode : Lossy
Stream size : 65.0 MiB (9%)
Title : Mafiaking
Writing library : LAME3.99r
Language : Hindi
Default : Yes
Forced : No
 *
*
196006.th.png
241bb9.th.png
614a9a.th.png
11.th.png
*
*
*
*
*
*
*
 
*
————–
————–

 

No links available
No downloads available

Genres

Related movies

Watch Dragon ball super