Saala Khadoos (2016) – 720p – BluRay – Hindi – x264 – AC3 – 5.1 – Mafiaking 935Mb

Saala Khadoos (2016) – 720p – BluRay – Hindi – x264 – AC3 – 5.1 – Mafiaking 935Mb
Director

Saala Khadoos (2016) - 720p - BluRay - Hindi - x264 - AC3 - 5.1 - Mafiaking

Saala Khadoos (2016) – 720p – BluRay – Hindi – x264 – AC3 – 5.1 – Mafiaking 935Mb

Ratings: 8.1/10

Genere: Action, Drama, Sport

General
Unique ID : 229207667705233169310815370924950757139 (0xAC6FCA83AC399795A1A1307321971F13)
Complete name : Saala Khadoos (2016) - 720p - BluRay - Hindi - x264 - AC3 - 5.1 - Mafiaking - M2Tv - ExClusive.mkv
Format : Matroska
Format version : Version 4 / Version 2
File size : 935 MiB
Duration : 1h 46mn
Overall bit rate mode : Variable
Overall bit rate : 1 225 Kbps
Movie name : Saala Khadoos (2016) - 720p - BluRay - Hindi - x264 - AC3 - 5.1 - Mafiaking - M2Tv - ExClusive
Encoded date : UTC 2016-06-16 09:45:33
Writing application : mkvmerge v8.3.0 ('Over the Horizon') 64bit
Writing library : libebml v1.3.1 + libmatroska v1.4.2
Video
ID : 1
Format : AVC
Format/Info : Advanced Video Codec
Format profile : [email protected]
Format settings, CABAC : Yes
Format settings, ReFrames : 3 frames
Codec ID : V_MPEG4/ISO/AVC
Duration : 1h 46mn
Bit rate mode : Variable
Bit rate : 1 000 Kbps
Maximum bit rate : 62.5 Mbps
Width : 1 280 pixels
Height : 544 pixels
Display aspect ratio : 2.35:1
Frame rate mode : Constant
Frame rate : 24.000 fps
Color space : YUV
Chroma subsampling : 4:2:0
Bit depth : 8 bits
Scan type : Progressive
Bits/(Pixel*Frame) : 0.060
Stream size : 745 MiB (80%)
Title : Mafiaking
Language : Hindi
Default : Yes
Forced : No

Audio
ID : 2
Format : AC-3
Format/Info : Audio Coding 3
Mode extension : CM (complete main)
Format settings, Endianness : Big
Codec ID : A_AC3
Duration : 1h 46mn
Bit rate mode : Constant
Bit rate : 224 Kbps
Channel(s) : 6 channels
Channel positions : Front: L C R, Side: L R, LFE
Sampling rate : 48.0 KHz
Compression mode : Lossy
Stream size : 171 MiB (18%)
Title : Mafiaking
Language : Hindi
Default : Yes
Forced : No
Saala Khadoos (2016) - 720p - BluRay - Hindi - x264 - AC3 - 5.1 - Mafiaking
Saala Khadoos (2016) - 720p - BluRay - Hindi - x264 - AC3 - 5.1 - Mafiaking
Saala Khadoos (2016) - 720p - BluRay - Hindi - x264 - AC3 - 5.1 - Mafiaking

 *

Advertising

*
*
*
*
*
 

 

Jun 18, 2016 - Posted by Kartik -

Comments are closed.