Remember Me
A password will be e-mailed to you.
Please enter your username or email address. You will receive a link to create a new password via email.
Cancel
PerfectHDMovies.me

Saaheb (1985) 720p WebHD – AVC – AAC 2CH CA (DUS) 165 GB

Saaheb    

N/A N/A BollywoodBollywood WEB-DL 720p

7.1
IMDB: 7.1/10 329 votes

, , ,

N/A

India

Report error

General
Complete name: C:\Users\CA\Desktop\Saaheb (1985) 720p WebHD - AVC - AAC 2CH CA (DUS).mp4
Format                                   : MPEG-4
Format profile                           : Base Media / Version 2
Codec ID                                 : mp42
File size                                : 1.65 GiB
Duration                                 : 2h 19mn
Overall bit rate mode                    : Variable
Overall bit rate                         : 1 694 Kbps
Encoded date                             : UTC 2015-05-24 15:05:45
Tagged date                              : UTC 2015-05-24 15:05:45
gsst                                     : 0
gstd                                     : 8348896

Video
ID                                       : 1
Format                                   : AVC
Format/Info                              : Advanced Video Codec
Format profile                           : [email protected]
Format settings, CABAC                   : Yes
Format settings, ReFrames                : 1 frame
Format settings, GOP                     : M=1, N=60
Codec ID                                 : avc1
Codec ID/Info                            : Advanced Video Coding
Duration                                 : 2h 19mn
Bit rate                                 : 1 500 Kbps
Maximum bit rate                         : 4 098 Kbps
Width                                    : 1 280 pixels
Height                                   : 720 pixels
Display aspect ratio                     : 16:9
Frame rate mode                          : Constant
Frame rate                               : 25.000 fps
Color space                              : YUV
Chroma subsampling                       : 4:2:0
Bit depth                                : 8 bits
Scan type                                : Progressive
Bits/(Pixel*Frame)                       : 0.065
Stream size                              : 1.46 GiB (89%)
Tagged date                              : UTC 2015-05-24 15:08:49

Audio
ID                                       : 2
Format                                   : AAC
Format/Info                              : Advanced Audio Codec
Format profile                           : LC
Codec ID                                 : 40
Duration                                 : 2h 19mn
Bit rate mode                            : Variable
Bit rate                                 : 192 Kbps
Maximum bit rate                         : 201 Kbps
Channel(s)                               : 2 channels
Channel positions                        : Front: L R
Sampling rate                            : 44.1 KHz
Compression mode                         : Lossy
Stream size                              : 191 MiB (11%)
Title                                    : IsoMedia File Produced by Google, 5-11-2011
Language                                 : English
Encoded date                             : UTC 2015-05-24 15:07:27
Tagged date                              : UTC 2015-05-24 15:08:49

 

*
*
*
*
*
*
No links available
No downloads available

Genres

Related movies

Watch Dragon ball super