Remember Me
A password will be e-mailed to you.
Please enter your username or email address. You will receive a link to create a new password via email.
Cancel
PerfectHDMovies.me

Rocky Handsome (2016) – 1CD – DVDSCR-Rip – Hindi – x264 – MP3 – Mafiaking – M2Tv

Rocky Handsome    

N/A N/A BollywoodBollywood Pre-Releases (Latest)

N/A
IMDB: N/A/10 N/A votes

, , ,

N/A

India

Report error

General
 
 Format : Matroska
 Format version : Version 4 / Version 2
 File size : 704 MiB
 Duration : 2h 4mn
 Overall bit rate : 792 Kbps
 
 
 Video
 ID : 1
 Format : AVC
 Format/Info : Advanced Video Codec
 Format profile : [email protected]
 Format settings, CABAC : Yes
 Format settings, ReFrames : 4 frames
 Codec ID : V_MPEG4/ISO/AVC
 Duration : 2h 4mn
 Bit rate : 710 Kbps
 Width : 640 pixels
 Height : 272 pixels
 Display aspect ratio : 2.35:1
 Frame rate mode : Constant
 Frame rate : 23.976 fps
 Color space : YUV
 Chroma subsampling : 4:2:0
 Bit depth : 8 bits
 Scan type : Progressive
 Bits/(Pixel*Frame) : 0.170
 Stream size : 618 MiB (88%)
 Title : Mafiaking
 Language : Hindi
 Default : Yes
 Forced : No
 
 Audio
 ID : 2
 Format : MPEG Audio
 Format version : Version 1
 Format profile : Layer 3
 Mode : Joint stereo
 Mode extension : MS Stereo
 Codec ID : A_MPEG/L3
 Codec ID/Hint : MP3
 Duration : 2h 4mn
 Bit rate mode : Constant
 Bit rate : 80.0 Kbps
 Channel(s) : 2 channels
 Sampling rate : 32.0 KHz
 Compression mode : Lossy
 Stream size : 71.1 MiB (10%)
 Title : Mafiaking
 Writing library : LAME3.99r
 Language : Hindi
 Default : Yes
 Forced : No
 
LETWATACH
*
*
*
*
*
 

 

No links available
No downloads available

Genres

Related movies

Watch Dragon ball super