Risen 2016 720p HD CAM-KOMPENSAM – 2.71 GB

Risen 2016 720p HD CAM-KOMPENSAM  – 2.71 GB

Format : AVI
Format/Info : Audio Video Interleave
Format profile : OpenDML
File size : 2.71 GiB
Duration : 1h 39mn
Overall bit rate mode : Variable
Overall bit rate : 3 889 Kbps
Writing library : VirtualDub build 30091/release
Video
ID : 0
Format : MPEG-4 Visual
Format profile : Advanced [email protected]
Format settings, BVOP : 2
Format settings, QPel : No
Format settings, GMC : No warppoints
Format settings, Matrix : Default (H.263)
Muxing mode : Packed bitstream
Codec ID : XVID
Codec ID/Hint : XviD
Duration : 1h 39mn
Bit rate : 3 681 Kbps
Width : 1 264 pixels
Height : 448 pixels
Display aspect ratio : 2.821
Frame rate : 23.976 (24000/1001) fps
Color space : YUV
Chroma subsampling : 4:2:0
Bit depth : 8 bits
Scan type : Progressive
Compression mode : Lossy
Bits/(Pixel*Frame) : 0.271
Stream size : 2.57 GiB (95%)
Writing library : XviD 67
Audio
ID : 1
Format : MPEG Audio
Format version : Version 1
Format profile : Layer 3
Codec ID : 55
Codec ID/Hint : MP3
Duration : 1h 39mn
Bit rate mode : Variable
Bit rate : 192 Kbps
Channel(s) : 2 channels
Sampling rate : 48.0 KHz
Compression mode : Lossy
Stream size : 138 MiB (5%)
Alignment : Split accross interleaves
Interleave, duration : 24 ms (0.58 video frame)
Interleave, preload duration : 1008 ms

*
*
*
Click To Resize
*
*
*
USERSCLOUD
*
*
*
*
 

 

Advertising

Mar 26, 2016 - Posted by Rujax -

Comments are closed.