Remember Me
A password will be e-mailed to you.
Please enter your username or email address. You will receive a link to create a new password via email.
Cancel
PerfectHDMovies.me

Redline (2007) 1080p BDRip Dual Audio Org DD Hindi 5.1+Eng 5.1 -~{DOOMSDAY}~ – 2.60 GB

Redline    

PG-13 95 min Dual AudioDual Audio Blu-Ray 1080p

4.0
IMDB: 4.0/10 7,939 votes

, , ,

1 nomination.

USA

Report error

Redline (2007) 1080p BDRip Dual Audio Org DD Hindi 5.1+Eng 5.1 -~{DOOMSDAY}~ - 2.60 GB

Redline (2007) 1080p BDRip Dual Audio Org DD Hindi 5.1+Eng 5.1 -~{DOOMSDAY}~ – 2.60 GB

Complete name                            : Redline.(2007).[email protected]}~-.mkv
Format                                   : Matroska
Format version                           : Version 4 / Version 2
File size                                : 2.52 GiB
Duration                                 : 1 h 29 min
Overall bit rate mode                    : Variable
Overall bit rate                         : 4 025 kb/s
Movie name                               : Redline.(2007).[email protected]}~-

Video
ID                                       : 1
Format                                   : AVC
Format/Info                              : Advanced Video Codec
Format profile                           : [email protected]
Format settings, CABAC                   : Yes
Format settings, ReFrames                : 4 frames
Codec ID                                 : V_MPEG4/ISO/AVC
Duration                                 : 1 h 29 min
Bit rate mode                            : Variable
Bit rate                                 : 3 000 kb/s
Maximum bit rate                         : 62.5 Mb/s
Width                                    : 1 920 pixels
Height                                   : 800 pixels
Display aspect ratio                     : 2.40:1
Frame rate mode                          : Constant
Frame rate                               : 25.000 FPS
Original frame rate                      : 23.976 (24000/1001) FPS
Color space                              : YUV
Chroma subsampling                       : 4:2:0
Bit depth                                : 8 bits
Scan type                                : Progressive
Bits/(Pixel*Frame)                       : 0.078
Stream size                              : 1.95 GiB (78%)
Title                                    : Redline.(2007).[email protected]}~-
Language                                 : English
Default                                  : Yes
Forced                                   : Yes

Audio #1
ID                                       : 2
Format                                   : AC-3
Format/Info                              : Audio Coding 3
Mode extension                           : CM (complete main)
Format settings, Endianness              : Big
Codec ID                                 : A_AC3
Duration                                 : 1 h 29 min
Bit rate mode                            : Constant
Bit rate                                 : 448 kb/s
Channel(s)                               : 6 channels
Channel positions                        : Front: L C R, Side: L R, LFE
Sampling rate                            : 48.0 kHz
Frame rate                               : 31.250 FPS (1536 spf)
Compression mode                         : Lossy
Stream size                              : 287 MiB (11%)
Title                                    : RiPPER~ L3GEND~Org Dolby Digital [email protected]~
Language                                 : English
Default                                  : No
Forced                                   : No

Audio #2
ID                                       : 3
Format                                   : AC-3
Format/Info                              : Audio Coding 3
Mode extension                           : CM (complete main)
Format settings, Endianness              : Big
Codec ID                                 : A_AC3
Duration                                 : 1 h 29 min
Bit rate mode                            : Constant
Bit rate                                 : 448 kb/s
Channel(s)                               : 6 channels
Channel positions                        : Front: L C R, Side: L R, LFE
Sampling rate                            : 48.0 kHz
Frame rate                               : 31.250 FPS (1536 spf)
Compression mode                         : Lossy
Stream size                              : 287 MiB (11%)
Title                                    : RiPPER~ L3GEND~Org Dolby Digital [email protected]~
Language                                 : Hindi
Default                                  : Yes
Forced                                   : No

Text
ID                                       : 4
Format                                   : UTF-8
Codec ID                                 : S_TEXT/UTF8
Codec ID/Info                            : UTF-8 Plain Text
Duration                                 : 1 h 29 min
Bit rate                                 : 74 b/s
Count of elements                        : 1288
Stream size                              : 48.8 KiB (0%)
Title                                    : L3GEND~ SRT~
Language                                 : English
Default                                  : Yes
Forced                                   : No

ss

Redline (2007) 1080p BDRip Dual Audio Org DD Hindi 5.1+Eng 5.1 -~{DOOMSDAY}~ - 2.60 GBRedline (2007) 1080p BDRip Dual Audio Org DD Hindi 5.1+Eng 5.1 -~{DOOMSDAY}~ - 2.60 GBRedline (2007) 1080p BDRip Dual Audio Org DD Hindi 5.1+Eng 5.1 -~{DOOMSDAY}~ - 2.60 GB

wo

*
*
FLASHSX
*
LETWATCH
dl
*
*
*
INDISHARE
*
BDUPLOD
*
*
*
No links available
No downloads available

Genres

Related movies

Watch Dragon ball super