Remember Me
A password will be e-mailed to you.
Please enter your username or email address. You will receive a link to create a new password via email.
Cancel
PerfectHDMovies.me

Pyaar Ka Punchnama 2 (2015) – 720p – WebHD-Rip – Hindi – x264 – AC3 – 5.1 – Esub – Mafiaking 1.1Gb

BollywoodBollywood WEB-DL 720p

7.5
IMDB: 7.5/10 votes

, ,

India

Report error

Pyaar Ka Punchnama 2 (2015) - 720p - WebHD-Rip - Hindi - x264 - AC3 - 5.1 - Esub - Mafiaking

Pyaar Ka Punchnama 2 (2015) – 720p – WebHD-Rip – Hindi – x264 – AC3 – 5.1 – Esub – Mafiaking 1.1Gb

Ratings: 7.5/10

Genere: Comedy, Drama, Romance

General
Unique ID : 206754818784094749611719237423633197176 (0x9B8B879813C5BA40BED10BF1449EE878)
Complete name : Pyaar Ka Punchnama 2 (2015) - 720p - WebHD-Rip - Hindi - x264 - AC3 - 5.1 - Esub - Mafiaking - M2Tv - ExClusive.mkv
Format : Matroska
Format version : Version 4 / Version 2
File size : 1.06 GiB
Duration : 2h 9mn
Overall bit rate mode : Variable
Overall bit rate : 1 176 Kbps
Movie name : Pyaar Ka Punchnama 2 (2015) - 720p - WebHD-Rip - Hindi - x264 - AC3 - 5.1 - Esub - Mafiaking - M2Tv - ExClusive
Encoded date : UTC 2016-06-12 08:25:33
Writing application : mkvmerge v8.3.0 ('Over the Horizon') 64bit
Writing library : libebml v1.3.1 + libmatroska v1.4.2

Video
ID : 1
Format : AVC
Format/Info : Advanced Video Codec
Format profile : [email protected]
Format settings, CABAC : Yes
Format settings, ReFrames : 3 frames
Codec ID : V_MPEG4/ISO/AVC
Duration : 2h 9mn
Bit rate mode : Variable
Bit rate : 951 Kbps
Maximum bit rate : 62.5 Mbps
Width : 1 280 pixels
Height : 544 pixels
Display aspect ratio : 2.35:1
Frame rate mode : Constant
Frame rate : 25.000 fps
Color space : YUV
Chroma subsampling : 4:2:0
Bit depth : 8 bits
Scan type : Progressive
Bits/(Pixel*Frame) : 0.055
Stream size : 859 MiB (79%)
Title : Mafiaking
Language : Hindi
Default : Yes
Forced : No

Audio
ID : 2
Format : AC-3
Format/Info : Audio Coding 3
Mode extension : CM (complete main)
Format settings, Endianness : Big
Codec ID : A_AC3
Duration : 2h 9mn
Bit rate mode : Constant
Bit rate : 224 Kbps
Channel(s) : 6 channels
Channel positions : Front: L C R, Side: L R, LFE
Sampling rate : 48.0 KHz
Compression mode : Lossy
Stream size : 207 MiB (19%)
Title : Mafiaking
Language : Hindi
Default : Yes
Forced : No

Text
ID : 3
Format : UTF-8
Codec ID : S_TEXT/UTF8
Codec ID/Info : UTF-8 Plain Text
Title : Mafiaking
Language : English
Default : Yes
Forced : No
No links available
No downloads available

Genres

Related movies

Watch Dragon ball super