Remember Me
A password will be e-mailed to you.
Please enter your username or email address. You will receive a link to create a new password via email.
Cancel
PerfectHDMovies.me

Pursued (2004) 480p DvdRip Org 2ch Hindi~Vision 855 MB

Pursued    

R 95 min Dual AudioDual Audio DVDRip

5.3
IMDB: 5.3/10 1,368 votes

, , ,

3 nominations.

USA, Canada

Report error

Pursued (2004) 480p DvdRip Org 2ch Hindi~Vision 855 MB

Cover
General
Unique ID : 211366467500154602105190760556245909964 (0x9F03B36E2B2B7FFB80C74D6AFE7581CC)
Complete name : Pursued (2004) 480p DvdRip Org 2ch Hindi~Vision.mkv
Format : Matroska
Format version : Version 4 / Version 2
File size : 846 MiB
Duration : 1h 31mn
Overall bit rate : 1 293 Kbps
Movie name : Vision
Encoded date : UTC 2015-06-29 09:17:58
Writing application : mkvmerge v7.8.0 (‘River Man’) 32bit built on Mar 27 2015 16:18:02
Writing library : Lavf55.12.0
DURATION : 01:31:28.571000000

……………………………………………..

Video
ID : 1
Format : AVC
Format/Info : Advanced Video Codec
Format profile : [email protected]
Format settings, CABAC : Yes
Format settings, ReFrames : 4 frames
Codec ID : V_MPEG4/ISO/AVC
Duration : 1h 31mn
Bit rate : 1 100 Kbps
Width : 720 pixels
Height : 416 pixels
Display aspect ratio : 1.731
Frame rate mode : Constant
Frame rate : 25.000 fps
Color space : YUV
Chroma subsampling : 4:2:0
Bit depth : 8 bits
Scan type : Progressive
Bits/(Pixel*Frame) : 0.147
Stream size : 704 MiB (83%)
Title : Vision
Writing library : x264 core 142 r2479 dd79a61

…………………………………………………………………

Default : Yes
Forced : No
Color primaries : BT.601 PAL
Transfer characteristics : BT.709
Matrix coefficients : BT.601
Color range : Limited
DURATION : 01:31:29.480000000
NUMBER_OF_FRAMES : 137237
NUMBER_OF_BYTES : 754549274
_STATISTICS_WRITING_APP : mkvmerge v7.8.0 (‘River Man’) 32bit built on Mar 27 2015 16:18:02

……………………………………………………………………………………

Audio
ID : 2
Format : AC-3
Format/Info : Audio Coding 3
Mode extension : CM (complete main)
Format settings, Endianness : Big
Codec ID : A_AC3
Duration : 1h 31mn
Bit rate mode : Constant
Bit rate : 192 Kbps
Channel(s) : 2 channels
Channel positions : Front: L R
Sampling rate : 44.1 KHz
Bit depth : 16 bits
Compression mode : Lossy
Delay relative to video : -80ms
Stream size : 126 MiB (15%)
Title : Org 2ch
Language : Hindi
Default : Yes
Forced : No

Screen Shots

Pursued6.jpg
Pursued1.jpg
Pursued2.jpg
Pursued3.jpg
Pursued4.jpg
Pursued5.jpg

Thanks To DJ SNAKE

*
*
*
*
*
No links available
No downloads available

Genres

Related movies

Watch Dragon ball super