Remember Me
A password will be e-mailed to you.
Please enter your username or email address. You will receive a link to create a new password via email.
Cancel
PerfectHDMovies.me

Prince of Persia [2010] 720p BDRip x264 60 FPS Hindi DD5.1 Ch…HOn3y~ 3.99 GB

Prince of Persia: The Sands of Time    

PG-13 116 min Dual AudioDual Audio DVDRip 720p

6.6
IMDB: 6.6/10 217,059 votes

, , ,

9 nominations.

USA

Report error

Prince of Persia [2010] 720p BDRip x264 60 FPS Hindi DD5.1 Ch...HOn3y

Prince of Persia [2010] 720p BDRip x264 60 FPS Hindi DD5.1 Ch…HOn3y~ 3.99 GB

General

Format : Matroska
Format version : Version 4 / Version 2
File size : 3.99 GiB
Duration : 1h 55mn
Overall bit rate : 4 926 Kbps

Video
ID : 1
Format : AVC
Format/Info : Advanced Video Codec
Format profile : [email protected]
Format settings, CABAC : Yes
Format settings, ReFrames : 8 frames
Codec ID : V_MPEG4/ISO/AVC
Duration : 1h 55mn
Bit rate : 4 709 Kbps
Width : 1 280 pixels
Height : 536 pixels
Display aspect ratio : 2.40:1
Frame rate mode : Constant
Frame rate : 60.000 fps
Original frame rate : 59.940 fps
Color space : YUV
Chroma subsampling : 4:2:0
Bit depth : 8 bits
Scan type : Progressive
Bits/(Pixel*Frame) : 0.114
Stream size : 3.73 GiB (93%)
Title : JmD007
Language : English
Default : Yes
Forced : No
Color range : Limited
Color primaries : Generic film
Transfer characteristics : BT.709
Matrix coefficients : BT.709

Audio
ID : 2
Format : AC-3
Format/Info : Audio Coding 3
Mode extension : CM (complete main)
Format settings, Endianness : Big
Codec ID : A_AC3
Duration : 1h 55mn
Bit rate mode : Constant
Bit rate : 224 Kbps
Channel(s) : 6 channels
Channel positions : Front: L C R, Side: L R, LFE
Sampling rate : 48.0 KHz
Bit depth : 16 bits
Compression mode : Lossy
Stream size : 186 MiB (5%)
Title : JmD007
Language : Hindi
Default : Yes
Forced : No

 http://extraimago.com/images/2016/05/07/vlcsnap-2016-05-07-22h21m48s987.png
http://extraimago.com/images/2016/05/07/vlcsnap-2016-05-07-22h21m19s549.png
http://extraimago.com/images/2016/05/07/vlcsnap-2016-05-07-22h22m04s171.png
LETWATACH
*
*
*
*
*
*
No links available
No downloads available

Genres

Related movies

Watch Dragon ball super