Remember Me
A password will be e-mailed to you.
Please enter your username or email address. You will receive a link to create a new password via email.
Cancel
PerfectHDMovies.me

Prey (2007) 720p BluRay x264 [Dual Audio] [Hindi 2.0 – English] – monu987 1.79 GiB

Prey    

N/A 92 min Dual AudioDual Audio Blu-Ray 720p

4.7
IMDB: 4.7/10 6,496 votes

, , ,

N/A

USA, South Africa

Report error

Prey (2007) 720p BluRay x264 [Dual Audio] [Hindi 2.0 - English] - monu987

Prey (2007) 720p BluRay x264 [Dual Audio] [Hindi 2.0 – English] – monu987

Prey (2007) 720p BluRay x264 [Dual Audio] [Hindi 2.0 - English] - monu987
 Format : Matroska
 Format version : Version 4 / Version 2
 File size : 1.79 GiB
 Duration : 1h 28mn
 Overall bit rate mode : Variable
 Overall bit rate : 2 893 Kbps
 Movie name : Prey (2007) 720p - monu987
 Encoded date : UTC 2016-10-09 06:13:58
 Writing application : mkvmerge v7.9.0 ('Birds') 64bit
 Writing library : libebml v1.3.1 + libmatroska v1.4.2
 
 Video
 ID : 1
 Format : AVC
 Format/Info : Advanced Video Codec
 Format profile : [email protected]
 Format settings, CABAC : Yes
 Format settings, ReFrames : 8 frames
 Codec ID : V_MPEG4/ISO/AVC
 Duration : 1h 28mn
 Bit rate mode : Variable
 Bit rate : 2 510 Kbps
 Maximum bit rate : 62.5 Mbps
 Width : 1 280 pixels
 Height : 544 pixels
 Display aspect ratio : 2.35:1
 Frame rate mode : Constant
 Frame rate : 23.976 fps
 Color space : YUV
 Chroma subsampling : 4:2:0
 Bit depth : 8 bits
 Scan type : Progressive
 Bits/(Pixel*Frame) : 0.150
 Stream size : 1.51 GiB (85%)
 Title : monu987
 Writing library : x264 core 142 r2431 ac76440
 Default : Yes
 Forced : Yes
 Color range : Limited
 Color primaries : Generic film
 Transfer characteristics : BT.709
 Matrix coefficients : BT.709
 
 Audio #1
 ID : 2
 Format : AC-3
 Format/Info : Audio Coding 3
 Mode extension : CM (complete main)
 Format settings, Endianness : Big
 Codec ID : A_AC3
 Duration : 1h 28mn
 Bit rate mode : Constant
 Bit rate : 192 Kbps
 Channel(s) : 2 channels
 Channel positions : Front: L R
 Sampling rate : 48.0 KHz
 Compression mode : Lossy
 Stream size : 121 MiB (7%)
 Title : monu987
 Language : Hindi
 Default : Yes
 Forced : Yes
 
 Audio #2
 ID : 3
 Format : AC-3
 Format/Info : Audio Coding 3
 Mode extension : CM (complete main)
 Format settings, Endianness : Big
 Codec ID : A_AC3
 Duration : 1h 28mn
 Bit rate mode : Constant
 Bit rate : 192 Kbps
 Channel(s) : 6 channels
 Channel positions : Front: L C R, Side: L R, LFE
 Sampling rate : 48.0 KHz
 Compression mode : Lossy
 Stream size : 121 MiB (7%)
 Title : monu987
 Language : English
 Default : No
 Forced : No

ss

wo

*
*
FLASHSX
*
LETWATCH
dl
 
No links available
No downloads available

Genres

Related movies

Watch Dragon ball super