Remember Me
A password will be e-mailed to you.
Please enter your username or email address. You will receive a link to create a new password via email.
Cancel
PerfectHDMovies.me

Precious Cargo 2016 BR-Rip 1080p x265 ac3 6ch aac 2ch -Dtech 2.9GB

Precious Cargo    

R 90 min HollywoodHollywood Blu-Ray 1080p

4.6
IMDB: 4.6/10 2,146 votes

, , ,

N/A

Canada

Report error

Precious Cargo 2016 BR-Rip 1080p x265 ac3 6ch aac 2ch -Dtech 2.9GB

Precious Cargo 2016 BR-Rip 1080p x265 ac3 6ch aac 2ch -Dtech 2.9GB

General
Complete name                            : /home/dtech/torrents/Precious Cargo 2016 BR-Rip 1080p x265 ac3 6ch aac 2ch -Dtech.mp4
Format                                   : MPEG-4
Format profile                           : Base Media / Version 2
Codec ID                                 : mp42 (isom/iso2/mp41)
File size                                : 2.88 GiB
Duration                                 : 1h 29mn
Overall bit rate mode                    : Variable
Overall bit rate                         : 4 583 Kbps
Movie name                               : Precious Cargo (2016)
Encoded date                             : UTC 2016-06-30 01:28:55
Tagged date                              : UTC 2016-06-30 01:28:55
Writing application                      : HandBrake 0.10.5 2016021100

Video
ID                                       : 1
Format                                   : HEVC
Format/Info                              : High Efficiency Video Coding
Format profile                           : [email protected]@Main
Codec ID                                 : hev1
Codec ID/Info                            : High Efficiency Video Coding
Duration                                 : 1h 29mn
Bit rate                                 : 3 503 Kbps
Width                                    : 1 920 pixels
Height                                   : 800 pixels
Display aspect ratio                     : 2.40:1
Frame rate mode                          : Variable
Frame rate                               : 23.976 (24000/1001) fps
Minimum frame rate                       : 23.974 fps
Maximum frame rate                       : 23.981 fps
Color space                              : YUV
Chroma subsampling                       : 4:2:0
Bit depth                                : 8 bits
Bits/(Pixel*Frame)                       : 0.095
Stream size                              : 2.20 GiB (76%)
Writing library                          : x265 1.9:[Windows][GCC 4.9.0][64 bit] 8bit
Encoding settings                        : wpp / ctu=64 / min-cu-size=8 / max-tu-size=32 / tu-intra-depth=1 / tu-inter-depth=1 / me=1 / subme=2 / merange=57 / no-rect / no-amp / max-merge=2 / temporal-mvp / no-early-skip / rdpenalty=0 / no-tskip / no-tskip-fast / strong-intra-smoothing / no-lossless / no-cu-lossless / no-constrained-intra / fast-intra / open-gop / no-temporal-layers / interlace=0 / keyint=240 / min-keyint=24 / scenecut=40 / rc-lookahead=15 / lookahead-slices=5 / bframes=4 / bframe-bias=0 / b-adapt=0 / ref=3 / limit-refs=3 / no-limit-modes / weightp / no-weightb / aq-mode=1 / qg-size=32 / aq-strength=1.00 / cbqpoffs=0 / crqpoffs=0 / rd=2 / psy-rd=2.00 / rdoq-level=0 / psy-rdoq=0.00 / signhide / deblock / sao / no-sao-non-deblock / b-pyramid / cutree / no-intra-refresh / rc=crf / crf=20.0 / qcomp=0.60 / qpmin=0 / qpmax=51 / qpstep=4 / ipratio=1.40 / pbratio=1.30
Encoded date                             : UTC 2016-06-30 01:28:55
Tagged date                              : UTC 2016-06-30 01:28:55
Color range                              : Limited
Color primaries                          : BT.709
Transfer characteristics                 : BT.709
Matrix coefficients                      : BT.709

Audio #1
ID                                       : 2
Format                                   : AC-3
Format/Info                              : Audio Coding 3
Mode extension                           : CM (complete main)
Format settings, Endianness              : Big
Codec ID                                 : ac-3
Duration                                 : 1h 29mn
Bit rate mode                            : Constant
Bit rate                                 : 640 Kbps
Channel(s)                               : 6 channels
Channel positions                        : Front: L C R, Side: L R, LFE
Sampling rate                            : 48.0 KHz
Frame rate                               : 31.250 fps (1536 spf)
Bit depth                                : 16 bits
Compression mode                         : Lossy
Stream size                              : 412 MiB (14%)
Title                                    : English / English
Language                                 : English
Default                                  : Yes
Alternate group                          : 1
Encoded date                             : UTC 2016-06-30 01:28:55
Tagged date                              : UTC 2016-06-30 01:28:55
Fallback To                              : 3

Audio #2
ID                                       : 3
Format                                   : AAC
Format/Info                              : Advanced Audio Codec
Format profile                           : LC
Codec ID                                 : 40
Duration                                 : 1h 29mn
Bit rate mode                            : Variable
Bit rate                                 : 432 Kbps
Channel(s)                               : 2 channels
Channel positions                        : Front: L R
Sampling rate                            : 48.0 KHz
Frame rate                               : 46.875 fps (1024 spf)
Compression mode                         : Lossy
Stream size                              : 278 MiB (9%)
Title                                    : English / English
Language                                 : English
Default                                  : Inherited From: 2
Alternate group                          : 1
Encoded date                             : UTC 2016-06-30 01:28:55
Tagged date                              : UTC 2016-06-30 01:28:55
Fallback From                            : 2

    
No links available
No downloads available

Genres

Related movies

Watch Dragon ball super