Remember Me
A password will be e-mailed to you.
Please enter your username or email address. You will receive a link to create a new password via email.
Cancel
PerfectHDMovies.me

Pokemon The Rise of Darkrai – 2007 – 720p – HD – Hindi – Hon3yHD1.36 GiB

Pokémon: The Rise of Darkrai    

NOT RATED 90 min Dual AudioDual Audio HDRip 720p

6.5
IMDB: 6.5/10 1,380 votes

, , , , , ,

N/A

Japan, USA

Report error

Pokemon The Rise of Darkrai - 2007 - 720p - HD - Hindi - Hon3yHD - PerfectHDMovies

General
 Complete name : Pokemon The Rise of Darkrai - 2007 - 720p - HD - Hindi - Hon3yHD
 Format : MPEG-4
 Format profile : Base Media / Version 2
 Codec ID : mp42 (isom/iso2/avc1/mp41)
 File size : 1.36 GiB
 Duration : 1h 29mn
 Overall bit rate mode : Variable
 Overall bit rate : 2 166 Kbps
 
 Video
 ID : 1
 Format : AVC
 Format/Info : Advanced Video Codec
 Format profile : [email protected]
 Format settings, CABAC : Yes
 Format settings, ReFrames : 6 frames
 Codec ID : avc1
 Codec ID/Info : Advanced Video Coding
 Duration : 1h 29mn
 Bit rate : 2 000 Kbps
 Width : 1 280 pixels
 Height : 720 pixels
 Display aspect ratio : 16:9
 Frame rate mode : Constant
 Frame rate : 29.970 (30000/1001) fps
 Color space : YUV
 Chroma subsampling : 4:2:0
 Bit depth : 8 bits
 Scan type : Progressive
 Bits/(Pixel*Frame) : 0.072
 Stream size : 1.25 GiB (92%)
 Writing library : x264 core 142 r2479 dd79a61
 Color range : Limited
 Color primaries : BT.709
 Transfer characteristics : BT.709
 Matrix coefficients : BT.709
 
 Audio
 ID : 2
 Format : AAC
 Format/Info : Advanced Audio Codec
 Format profile : LC
 Codec ID : 40
 Duration : 1h 29mn
 Bit rate mode : Variable
 Bit rate : 160 Kbps
 Channel(s) : 2 channels
 Channel positions : Front: L R
 Sampling rate : 48.0 KHz
 Frame rate : 46.875 fps (1024 spf)
 Compression mode : Lossy
 Stream size : 103 MiB (7%)
 Title : Stereo / Stereo
 Language : Hindi
 Default : Yes
 Alternate group : 1
 http://extraimago.com/images/2016/04/17/pm11.jpg
http://extraimago.com/images/2016/04/17/pm13.jpg
http://extraimago.com/images/2016/04/17/pm14.jpg
LETWATACH
*
USERSFILES
*
*
*
*
 

 

Pokemon The Rise of Darkrai – 2007 – 720p – HD – Hindi – Hon3yHD1.36 GiB
Pokemon The Rise of Darkrai – 2007 – 720p – HD – Hindi – Hon3yHD1.36 GiB
Pokemon The Rise of Darkrai – 2007 – 720p – HD – Hindi – Hon3yHD1.36 GiB
No links available
No downloads available

Genres

Related movies

Watch Dragon ball super