Remember Me
A password will be e-mailed to you.
Please enter your username or email address. You will receive a link to create a new password via email.
Cancel
PerfectHDMovies.me

Point.Break.(2015).720p.BluRay.Hindi.DD5.1~{MicjD}~

Point Break    

PG-13 114 min Dual AudioDual Audio Blu-Ray 720p

5.3
IMDB: 5.3/10 17,108 votes

, , ,

N/A

USA, Germany, China

Report error

OWN Untouched DVD9 Hindi Audio


Complete name : Point.Break.(2015).720p.BluRay.Hindi.DD5.1~{MicjD}~
Format : Matroska
Format version : Version 4 / Version 2
File size : 1.14 GiB
Duration : 1h 49mn
Overall bit rate : 1 492 Kbps
Movie name : ~{MicjD}~
Encoded date : UTC 2016-04-20 18:33:08
Encoded By : ~{MicjD}~


Video
ID : 1
Format : AVC
Format/Info : Advanced Video Codec
Format profile : [email protected]
Format settings, CABAC : Yes
Format settings, ReFrames : 6 frames
Codec ID : V_MPEG4/ISO/AVC
Duration : 1h 49mn
Bit rate : 1 000 Kbps
Width : 1 280 pixels
Height : 536 pixels
Display aspect ratio : 2.40:1
Frame rate mode : Constant
Frame rate : 25.000 fps
Color space : YUV
Chroma subsampling : 4:2:0
Bit depth : 8 bits
Scan type : Progressive
Bits/(Pixel*Frame) : 0.058
Stream size : 814 MiB (70%)
Title : Point.Break.(2015).720p.BluRay.Hindi.DD5.1~{MicjD}~
Language : English
Default : Yes

Audio
ID : 2
Format : AC-3
Format/Info : Audio Coding 3
Mode extension : CM (complete main)
Format settings, Endianness : Big
Codec ID : A_AC3
Duration : 1h 49mn
Bit rate mode : Constant
Bit rate : 448 Kbps
Channel(s) : 6 channels
Channel positions : Front: L C R, Side: L R, LFE
Sampling rate : 48.0 KHz
Compression mode : Lossy
Stream size : 350 MiB (30%)
Title : ~{MicjD}~Org DD 5.1 448kbps~
Language : Hindi
Default : Yes
Forced : No
LETWATACH
*
*
*
*
*
GO4UP 
 

 

No links available
No downloads available

Genres

Related movies

Watch Dragon ball super