Remember Me
A password will be e-mailed to you.
Please enter your username or email address. You will receive a link to create a new password via email.
Cancel
PerfectHDMovies.me

Point Break (2015) 720p BluRay [Dual-Audio][English DD 5.1 + Hindi DD 5.1] Mafiaking M2Tv [1.1Gb]

Point Break    

PG-13 114 min Dual AudioDual Audio Blu-Ray 720p

5.4
IMDB: 5.4/10 24,388 votes

, , ,

N/A

USA, Germany, China

Report error

Ratings: 5.4/10

Genere: Action, Crime, Sport

General
Unique ID : 228800574531136691905686953142033535315 (0xAC2163456F7E4FC59168F3BF22A35153)
Complete name : Point Break (2015) 720p BluRay x264 [Dual-Audio][English DD 5.1+Hindi DD 5.1] - Mafiaking - M2Tv.mkv
Format : Matroska
Format version : Version 4 / Version 2
File size : 1.11 GiB
Duration : 1h 53mn
Overall bit rate : 1 400 Kbps
Movie name : Point Break (2015) 720p BluRay x264 [Dual-Audio][English DD 5.1+Hindi DD 5.1] - Mafiaking - M2Tv
Encoded date : UTC 2016-04-23 11:59:19
Writing application : mkvmerge v7.9.0 ('Birds') 64bit
Writing library : libebml v1.3.1 + libmatroska v1.4.2

Video
ID : 1
Format : AVC
Format/Info : Advanced Video Codec
Format profile : [email protected]
Format settings, CABAC : Yes
Format settings, ReFrames : 4 frames
Codec ID : V_MPEG4/ISO/AVC
Duration : 1h 53mn
Bit rate : 950 Kbps
Width : 1 280 pixels
Height : 534 pixels
Display aspect ratio : 2.40:1
Frame rate mode : Constant
Frame rate : 23.976 fps
Color space : YUV
Chroma subsampling : 4:2:0
Bit depth : 8 bits
Scan type : Progressive
Bits/(Pixel*Frame) : 0.058
Stream size : 752 MiB (66%)
Title : Mafiaking
Language : English
Default : Yes
Forced : No

Audio #1
ID : 2
Format : AC-3
Format/Info : Audio Coding 3
Mode extension : CM (complete main)
Format settings, Endianness : Big
Codec ID : A_AC3
Duration : 1h 53mn
Bit rate mode : Constant
Bit rate : 224 Kbps
Channel(s) : 6 channels
Channel positions : Front: L C R, Side: L R, LFE
Sampling rate : 48.0 KHz
Compression mode : Lossy
Stream size : 182 MiB (16%)
Title : Mafiaking
Language : Hindi
Default : Yes
Forced : No

Audio #2
ID : 3
Format : AC-3
Format/Info : Audio Coding 3
Mode extension : CM (complete main)
Format settings, Endianness : Big
Codec ID : A_AC3
Duration : 1h 53mn
Bit rate mode : Constant
Bit rate : 224 Kbps
Channel(s) : 6 channels
Channel positions : Front: L C R, Side: L R, LFE
Sampling rate : 48.0 KHz
Compression mode : Lossy
Stream size : 182 MiB (16%)
Title : Mafiaking
Language : English
Default : No
Forced : No
LETWATACH
*
USERSFILES
*
*
*
*
 

 

No links available
No downloads available

Genres

Related movies

Watch Dragon ball super