Remember Me
A password will be e-mailed to you.
Please enter your username or email address. You will receive a link to create a new password via email.
Cancel
PerfectHDMovies.me

Pirates of the Caribbean-1 (2003) 720p x264 Hindi AC3 -En AAC 5.1 MSubs -DDR 3.46 GB

Pirates of the Caribbean: The Curse of the Black Pearl    

PG-13 143 min Dual AudioDual Audio Blu-Ray 720p

8.1
IMDB: 8.1/10 807,128 votes

, , ,

Nominated for 5 Oscars. Another 31 wins & 88 nominations.

USA

Report error

Pirates of the Caribbean-1 (2003) 720p x264 Hindi AC3 -En AAC 5.1 MSubs -DDR

Pirates of the Caribbean-1 (2003) 720p x264 Hindi AC3 -En AAC 5.1 MSubs -DDR

Source : Fr BD50 @ DDR + Raw PCM 5.1 Hindi Audio

Format : Matroska
File size : 2.02 GiB
Duration : 2h 23mn
Overall bit rate : 2 016 Kbps


Video
Format : AVC
Format/Info : Advanced Video Codec
Format profile : [email protected]
Format settings, CABAC : Yes
Format settings, ReFrames : 12 frames
Codec ID : V_MPEG4/ISO/AVC
Duration : 2h 23mn
Bit rate : 1 388 Kbps
Width : 1 280 pixels
Height : 534 pixels
Display aspect ratio : 2.40:1
Frame rate mode : Constant
Frame rate : 23.976 (24000/1001) fps
Color space : YUV
Chroma subsampling : 4:2:0
Bit depth : 8 bits
Scan type : Progressive
Bits/(Pixel*Frame) : 0.085
Stream size : 1.39 GiB (69%)
Writing library : x264 core 148 r2692 64f4e24

Audio
Format : AC-3
Format/Info : Audio Coding 3
Mode extension : CM (complete main)
Format settings, Endianness : Big
Codec ID : A_AC3
Duration : 2h 23mn
Bit rate mode : Constant
Bit rate : 448 Kbps
Channel(s) : 6 channels
Channel positions : Front: L C R, Side: L R, LFE
Sampling rate : 48.0 KHz
Frame rate : 31.250 fps (1536 spf)
Compression mode : Lossy
Stream size : 440 MiB (21%)
Language : Hindi
Default : Yes
Forced : No

Audio #2
ID : 3
Format : AAC
Format/Info : Advanced Audio Codec
Format profile : LC
Codec ID : A_AAC
Duration : 2h 23mn
Bit rate : 192 Kbps
Channel(s) : 6 channels
Channel positions : Front: L C R, Side: L R, LFE
Sampling rate : 48.0 KHz
Frame rate : 46.875 fps (1024 spf)
Compression mode : Lossy
Delay relative to video : 9ms
Stream size : 196 MiB (10%)
Language : English
Default : No
Forced : No

Text #1
ID : 4
Format : VobSub
Muxing mode : zlib
Codec ID : S_VOBSUB
Codec ID/Info : Picture based subtitle format used on DVDs
Duration : 2h 22mn
Bit rate : 2 564 bps
Count of elements : 1918
Stream size : 2.62 MiB (0%)
Language : English
Default : Yes
Forced : No

Text #2
ID : 5
Format : VobSub
Muxing mode : zlib
Codec ID : S_VOBSUB
Codec ID/Info : Picture based subtitle format used on DVDs
Duration : 2h 23mn
Bit rate : 2 307 bps
Count of elements : 1427
Stream size : 2.36 MiB (0%)
Language : French
Default : No
Forced : No

 

Pirates of the Caribbean-1 (2003) 720p x264 Hindi AC3 -En AAC 5.1 MSubs -DDR Pirates of the Caribbean-1 (2003) 720p x264 Hindi AC3 -En AAC 5.1 MSubs -DDR Pirates of the Caribbean-1 (2003) 720p x264 Hindi AC3 -En AAC 5.1 MSubs -DDR

LETWATACH
*
*
*
*
*
*
*
GO4UP 

No links available
No downloads available

Genres

Related movies

Watch Dragon ball super