Remember Me
A password will be e-mailed to you.
Please enter your username or email address. You will receive a link to create a new password via email.
Cancel
PerfectHDMovies.me

Patang (2012) ¨Tiny 720p WebRip x264 MSubs -DDR 1023 MiB

Patang    

N/A 93 min BollywoodBollywood WEB-DL 720p

6.5
IMDB: 6.5/10 180 votes

, , ,

1 win & 1 nomination.

USA, India

Report error

Patang (2012) ¨Tiny 720p WebRip x264 MSubs -DDR

Patang (2012) ¨Tiny 720p WebRip x264 MSubs -DDR

Specs:
Source: Netflix HD Rip @ DDR

Format : Matroska
Format version : Version 4 / Version 2
File size : 1 023 MiB
Duration : 1 h 33 min
Overall bit rate : 1 525 kb/s
Encoded date : UTC 2016-09-15 04:56:36
Writing application : mkvmerge v9.2.0 ('Photograph') 64bit
Writing library : libebml v1.3.3 + libmatroska v1.4.4

Video
ID : 1
Format : AVC
Format/Info : Advanced Video Codec
Format profile : [email protected]
Format settings, CABAC : Yes
Format settings, ReFrames : 10 frames
Codec ID : V_MPEG4/ISO/AVC
Duration : 1 h 33 min
Bit rate : 1 301 kb/s
Width : 1 280 pixels
Height : 640 pixels
Display aspect ratio : 2.000
Frame rate mode : Constant
Frame rate : 24.000 FPS
Color space : YUV
Chroma subsampling : 4:2:0
Bit depth : 8 bits
Scan type : Progressive
Bits/(Pixel*Frame) : 0.066
Stream size : 873 MiB (85%)
Language : English
Default : Yes
Forced : No
Color range : Limited
Color primaries : BT.709
Transfer characteristics : BT.709
Matrix coefficients : BT.709

Audio
ID : 2
Format : AAC
Format/Info : Advanced Audio Codec
Format profile : LC
Codec ID : A_AAC
Duration : 1 h 33 min
Bit rate : 221 kb/s
Channel(s) : 2 channels
Channel positions : Front: L R
Sampling rate : 48.0 kHz
Frame rate : 46.875 FPS (1024 spf)
Compression mode : Lossy
Delay relative to video : 6 ms
Stream size : 148 MiB (15%)
Language : Hindi
Default : Yes
Forced : No

Text #1
ID : 3
Format : UTF-8
Codec ID : S_TEXT/UTF8
Codec ID/Info : UTF-8 Plain Text
Duration : 1 h 27 min
Bit rate : 39 b/s
Count of elements : 790
Stream size : 25.2 KiB (0%)
Language : English
Default : Yes
Forced : No

Text #2
ID : 4
Format : UTF-8
Codec ID : S_TEXT/UTF8
Codec ID/Info : UTF-8 Plain Text
Duration : 1 h 27 min
Bit rate : 39 b/s
Count of elements : 728
Stream size : 25.6 KiB (0%)
Language : French
Default : No
Forced : No

 
Patang (2012) ¨Tiny 720p WebRip x264 MSubs -DDR Patang (2012) ¨Tiny 720p WebRip x264 MSubs -DDRPatang (2012) ¨Tiny 720p WebRip x264 MSubs -DDR
LETWATACH
*
*
*
*
*
*
*
GO4UP 
 
No links available
No downloads available

Genres

Related movies

Watch Dragon ball super