Remember Me
A password will be e-mailed to you.
Please enter your username or email address. You will receive a link to create a new password via email.
Cancel
PerfectHDMovies.me

Paranormal Activity The Ghost Dimension 2015 BluRay 720p Dual Audio [English Hindi] AAC 5 1 Esubs Hon3y ~ 1.47 GB

Dual AudioDual Audio Blu-Ray 720p

IMDB: /10 votes

Report error

 
 
General
Format : Matroska
Format version : Version 4 / Version 2
File size : 1.43 GiB
Duration : 1h 37mn
Overall bit rate : 2 110 Kbps

Video
Format : AVC
Format/Info : Advanced Video Codec
Format profile : [email protected]
Format settings, CABAC : Yes
Format settings, ReFrames : 9 frames
Codec ID : V_MPEG4/ISO/AVC
Duration : 1h 37mn
Bit rate : 1 742 Kbps
Width : 1 280 pixels
Height : 720 pixels
Display aspect ratio : 16:9
Frame rate mode : Constant
Frame rate : 23.976 (24000/1001) fps
Color space : YUV
Chroma subsampling : 4:2:0
Bit depth : 8 bits
Scan type : Progressive
Bits/(Pixel*Frame) : 0.079
Stream size : 1.18 GiB (82%)
Title : [email protected]

Audio 1
Format : AAC
Format/Info : Advanced Audio Codec
Format profile : HE-AAC / LC
Codec ID : A_AAC
Duration : 1h 37mn
Bit rate : 192 Kbps
Channel(s) : 6 channels
Channel positions : Front: L C R, Side: L R, LFE
Sampling rate : 48.0 KHz / 24.0 KHz
Frame rate : 23.438 fps (1024 spf)
Compression mode : Lossy
Delay relative to video : 31ms
Stream size : 131 MiB (9%)
Title : Hindi—[email protected]
Default : Yes
Forced : No

Audio 2
Format : AAC
Format/Info : Advanced Audio Codec
Format profile : HE-AAC / LC
Codec ID : A_AAC
Duration : 1h 37mn
Bit rate : 192 Kbps
Channel(s) : 6 channels
Channel positions : Front: L C R, Side: L R, LFE
Sampling rate : 48.0 KHz / 24.0 KHz
Frame rate : 23.438 fps (1024 spf)
Compression mode : Lossy
Delay relative to video : 31ms
Stream size : 134 MiB (9%)
Title : English—[email protected]
Language : English
Default : No
Forced : No
 
 
 
*
*
*
*
*
*
 
 
 
 
 

 

 
No links available
No downloads available

Genres

Related movies

Watch Dragon ball super