Remember Me
A password will be e-mailed to you.
Please enter your username or email address. You will receive a link to create a new password via email.
Cancel
PerfectHDMovies.me

Paranormal Activity The Ghost Dimension (2015) 720p Blu-Ray x264 [Dual-Audio] [Hindi 5.1 + English 5.1] Esubs [PKG] 1.03 GB

Paranormal Activity: The Ghost Dimension    

R 88 min Dual AudioDual Audio Blu-Ray 720p

4.5
IMDB: 4.5/10 11,713 votes

, , ,

N/A

USA

Report error

tg
Video
ID : 1
Format : AVC
Format/Info : Advanced Video Codec
Format profile : [email protected]
Format settings, CABAC : Yes
Format settings, ReFrames : 5 frames
Codec ID : V_MPEG4/ISO/AVC
Duration : 1h 33mn
Bit rate : 1 086 Kbps
Width : 1 280 pixels
Height : 720 pixels
Display aspect ratio : 16:9
Frame rate mode : Constant
Frame rate : 25.000 fps
Original frame rate : 23.976 fps
Color space : YUV
Chroma subsampling : 4:2:0
Bit depth : 8 bits
Scan type : Progressive
Bits/(Pixel*Frame) : 0.047
Stream size : 725 MiB (69%)
Title : [PKG]
Writing library : x264 core 133 r2334 a3ac64b
Language : English
Default : No
Forced : No
DURATION : 01:33:23.400000000
NUMBER_OF_FRAMES : 140085
NUMBER_OF_BYTES : 780081419

Audio #1
ID : 2
Format : AC-3
Format/Info : Audio Coding 3
Mode extension : CM (complete main)
Format settings, Endianness : Big
Codec ID : A_AC3
Duration : 1h 33mn
Bit rate mode : Constant
Bit rate : 224 Kbps
Channel(s) : 6 channels
Channel positions : Front: L C R, Side: L R, LFE
Sampling rate : 48.0 KHz
Bit depth : 16 bits
Compression mode : Lossy
Stream size : 150 MiB (14%)
Title : [PKG]
Language : English
Default : No
Forced : No

Audio #2
ID : 4
Format : AC-3
Format/Info : Audio Coding 3
Mode extension : CM (complete main)
Format settings, Endianness : Big
Codec ID : A_AC3
Duration : 1h 33mn
Bit rate mode : Constant
Bit rate : 224 Kbps
Channel(s) : 6 channels
Channel positions : Front: L C R, Side: L R, LFE
Sampling rate : 48.0 KHz
Bit depth : 16 bits
Compression mode : Lossy
Stream size : 150 MiB (14%)
Title : [PKG]
Language : Hindi
Default : Yes
Forced : Yes
vlcsnap-2016-03-13-23h05m54s136.png
vlcsnap-2016-03-13-23h06m21s145.png
vlcsnap-2016-03-13-23h06m54s230.png
vlcsnap-2016-03-13-23h07m44s210.png
*
*
*
*
*
 

 

No links available
No downloads available

Genres

Related movies

Watch Dragon ball super