Remember Me
A password will be e-mailed to you.
Please enter your username or email address. You will receive a link to create a new password via email.
Cancel
PerfectHDMovies.me

One Night Stand 2016 720p – Hindi – DVDSCR – Zi$t – CTRC~643.25 MB

One Night Stand    

N/A N/A BollywoodBollywood Pre-Releases (Latest)

N/A
IMDB: N/A/10 N/A votes

,

N/A

India

Report error

CTRCCover.jpg

One Night Stand 2016 720p – Hindi – DVDSCR – Zi$t – CTRC~643.25 MB

General
Complete name : One Night Stand 2016
Format : MPEG-4
Format profile : Base Media
Codec ID : isom (isom/iso2/avc1/mp41)
File size : 643 MiB
Duration : 1h 32mn
Overall bit rate : 977 Kbps
Writing application : Lavf56.25.101

Video
ID : 1
Format : AVC
Format/Info : Advanced Video Codec
Format profile : [email protected]
Format settings, CABAC : Yes
Format settings, ReFrames : 4 frames
Codec ID : avc1
Codec ID/Info : Advanced Video Coding
Duration : 1h 32mn
Bit rate : 783 Kbps
Width : 1 136 pixels
Height : 482 pixels
Display aspect ratio : 2.35:1
Frame rate mode : Constant
Frame rate : 25.000 fps
Color space : YUV
Chroma subsampling : 4:2:0
Bit depth : 8 bits
Scan type : Progressive
Bits/(Pixel*Frame) : 0.057
Stream size : 515 MiB (80%)

Audio
ID : 2
Format : AAC
Format/Info : Advanced Audio Codec
Format profile : LC
Codec ID : 40
Duration : 1h 31mn
Bit rate mode : Constant
Bit rate : 188 Kbps
Channel(s) : 2 channels
Channel positions : Front: L R
Sampling rate : 44.1 KHz
Frame rate : 43.066 fps (1024 spf)
Compression mode : Lossy
Stream size : 124 MiB (19%)
Default : Yes
Alternate group : 1
Language : Hindi

1d988f.jpg
2310dc.jpg
62c2ab.jpg
LETWATACH
*
*
*
*
*
JHEBERG
*
No links available
No downloads available

Genres

Related movies

Watch Dragon ball super