Remember Me
A password will be e-mailed to you.
Please enter your username or email address. You will receive a link to create a new password via email.
Cancel
PerfectHDMovies.me

Nighthawks (1981) 720p BluRay x264 [Dual Audio] [Hindi 2.0 – English] – monu987 1.90 GB

Nighthawks    

R 99 min Dual AudioDual Audio Blu-Ray 720p

6.4
IMDB: 6.4/10 11,990 votes

,

, , ,

N/A

USA

Report error

Video
ID : 1
Format : AVC
Format/Info : Advanced Video Codec
Format profile : [email protected]
Format settings, CABAC : Yes
Format settings, ReFrames : 8 frames
Codec ID : V_MPEG4/ISO/AVC
Duration : 1h 35mn
Bit rate : 2 503 Kbps
Width : 1 280 pixels
Height : 688 pixels
Display aspect ratio : 1.85:1
Frame rate mode : Constant
Frame rate : 25.000 fps
Color space : YUV
Chroma subsampling : 4:2:0
Bit depth : 8 bits
Scan type : Progressive
Bits/(Pixel*Frame) : 0.114
Stream size : 1.63 GiB (87%)
Title : monu987
Writing library : x264 core 142 r2431 ac76440
Default : Yes
Forced : No
Color range : Limited
Color primaries : Generic film
Transfer characteristics : BT.709
Matrix coefficients : BT.709

Audio #1
ID : 2
Format : AC-3
Format/Info : Audio Coding 3
Mode extension : CM (complete main)
Format settings, Endianness : Big
Codec ID : A_AC3
Duration : 1h 35mn
Bit rate mode : Constant
Bit rate : 128 Kbps
Channel(s) : 2 channels
Channel positions : Front: L R
Sampling rate : 44.1 KHz
Bit depth : 16 bits
Compression mode : Lossy
Stream size : 87.1 MiB (5%)
Title : monu987
Language : Hindi
Default : Yes
Forced : Yes

Audio #2
ID : 3
Format : AC-3
Format/Info : Audio Coding 3
Mode extension : CM (complete main)
Format settings, Endianness : Big
Codec ID : A_AC3
Duration : 1h 35mn
Bit rate mode : Constant
Bit rate : 192 Kbps
Channel(s) : 2 channels
Channel positions : Front: L R
Sampling rate : 48.0 KHz
Bit depth : 16 bits
Compression mode : Lossy
Stream size : 131 MiB (7%)
Title : monu987
Language : English
Default : No
Forced : No
01b5830.md.png 05a4485.md.png
0654286.md.png 07883c4.md.png
026d8bd.md.png 08fbd4d.md.png
038c353.md.png 097dcbd.md.png
048d4c5.md.png
LETWATACH 
*
VODLOCKER
USERSCLOUD
*
USERFILES
*
MULTIUP
*

 

No links available
No downloads available

Genres

Related movies

Watch Dragon ball super